Index
# A B C D E F G H I J K L M N O P Q R S T U V W Y Z
Tags
Language
Tags

Featured TV Shows


DC's Legends of Tomorrow S05E09

Posted By: Tavaz
720p (HD) / WEBRip IMDb
DC's Legends of Tomorrow S05E09

DC's Legends of Tomorrow S05E09
WEBRip | MKV | 1280x720 | English | H264 @ 2749 kbps | E-AC-3 @ 256 kbps | 42 min 5 s | 905 MiB
Genre: Drama


When heroes alone are not enough … the world needs legends. Having seen the future, one he will desperately try to prevent from happening, time-traveling rogue Rip Hunter is tasked with assembling a disparate group of both heroes and villains to confront an unstoppable threat — one in which not only is the planet at stake, but all of time itself. Can this ragtag team defeat an immortal threat unlike anything they have ever known?

53f4043ec5fc4296853eb0b2ef77538c.mkv (905.1 MB)



General
Unique ID : 167283472523810659626136112541478082022 (0x7DD99FF904B3469E7E821CFF6EAED5E6)
Complete name : ./53f4043ec5fc4296853eb0b2ef77538c.mkv
Format : Matroska
Format version : Version 4 / Version 2
File size : 905 MiB
Duration : 42 min 5 s
Overall bit rate mode : Constant
Overall bit rate : 3 007 kb/s
Encoded date : UTC 2020-04-21 17:08:39
Writing application : mkvmerge v9.8.0 ('Kuglblids') 64bit
Writing library : libebml v1.3.9 + libmatroska v1.4.5

Video
ID : 1
Format : AVC
Format/Info : Advanced Video Codec
Format profile : Main@L3.1
Format settings : CABAC / 4 Ref Frames
Format settings, CABAC : Yes
Format settings, RefFrames : 4 frames
Codec ID : V_MPEG4/ISO/AVC
Duration : 42 min 5 s
Bit rate mode : Constant
Bit rate : 2 749 kb/s
Nominal bit rate : 3 500 kb/s / 3 500 kb/s
Width : 1 280 pixels
Height : 720 pixels
Display aspect ratio : 16:9
Frame rate mode : Constant
Frame rate : 23.976 (24000/1001) FPS
Color space : YUV
Chroma subsampling : 4:2:0
Bit depth : 8 bits
Scan type : Progressive
Bits/(Pixel*Frame) : 0.124
Stream size : 828 MiB (91%)
Writing library : x264 core 155
Encoding settings : cabac=1 / ref=4 / deblock=1:-1:-1 / analyse=0x1:0x131 / me=umh / subme=10 / psy=1 / psy_rd=1.00:0.15 / mixed_ref=1 / me_range=24 / chroma_me=1 / trellis=2 / 8x8dct=0 / cqm=0 / deadzone=21,11 / fast_pskip=1 / chroma_qp_offset=-3 / threads=24 / lookahead_threads=2 / sliced_threads=0 / slices=1 / nr=0 / decimate=1 / interlaced=0 / bluray_compat=0 / stitchable=1 / constrained_intra=0 / bframes=3 / b_pyramid=2 / b_adapt=2 / b_bias=0 / direct=3 / weightb=1 / open_gop=0 / weightp=2 / keyint=48 / keyint_min=2 / scenecut=0 / intra_refresh=0 / rc_lookahead=48 / rc=cbr / mbtree=1 / bitrate=3500 / ratetol=1.0 / qcomp=0.60 / qpmin=0 / qpmax=69 / qpstep=4 / vbv_maxrate=3500 / vbv_bufsize=3500 / nal_hrd=cbr / filler=1 / ip_ratio=1.40 / aq=3:1.00
Language : English
Default : Yes
Forced : No

Audio
ID : 2
Format : E-AC-3
Format/Info : Enhanced Audio Coding 3
Format settings, Endianness : Big
Codec ID : A_EAC3
Duration : 42 min 5 s
Bit rate mode : Constant
Bit rate : 256 kb/s
Channel(s) : 6 channels
Channel positions : Front: L C R, Side: L R, LFE
Sampling rate : 48.0 kHz
Frame rate : 187.500 FPS (256 SPF)
Compression mode : Lossy
Stream size : 77.1 MiB (9%)
Language : English
Service kind : Complete Main
Default : Yes
Forced : No





DC's Legends of Tomorrow S05E09


DC's Legends of Tomorrow S05E09


DC's Legends of Tomorrow S05E09


DC's Legends of Tomorrow S05E09


DC's Legends of Tomorrow S05E09

All episodes