Index
# A B C D E F G H I J K L M N O P Q R S T U V W Y Z
Tags
Language
Tags

Featured TV Shows


DC's Legends of Tomorrow S06E03

Posted By: Tavaz
720p (HD) / WEBRip IMDb
DC's Legends of Tomorrow S06E03

DC's Legends of Tomorrow S06E03
WEBRip | MKV | 1280x720 | English | H264 @ 4778 kbps | E-AC-3 @ 640 kbps | 42 min 12 s | 1.60 GiB
Subtitles: English
Genre: Drama


When heroes alone are not enough … the world needs legends. Having seen the future, one he will desperately try to prevent from happening, time-traveling rogue Rip Hunter is tasked with assembling a disparate group of both heroes and villains to confront an unstoppable threat — one in which not only is the planet at stake, but all of time itself. Can this ragtag team defeat an immortal threat unlike anything they have ever known?

44e2729a64304c67948d67ec8488dec9.mkv (1.6 GB)



General
Unique ID : 60180914398568864605829794972419035333 (0x2D466C29C071843A04630F91E2C510C5)
Complete name : ./44e2729a64304c67948d67ec8488dec9.mkv
Format : Matroska
Format version : Version 4 / Version 2
File size : 1.60 GiB
Duration : 42 min 12 s
Overall bit rate : 5 420 kb/s
Encoded date : UTC 2021-05-17 04:06:04
Writing application : mkvmerge v52.0.0 ('Secret For The Mad') 64-bit
Writing library : libebml v1.4.2 + libmatroska v1.6.2

Video
ID : 1
Format : AVC
Format/Info : Advanced Video Codec
Format profile : High@L3.1
Format settings : CABAC / 4 Ref Frames
Format settings, CABAC : Yes
Format settings, RefFrames : 4 frames
Codec ID : V_MPEG4/ISO/AVC
Duration : 42 min 12 s
Bit rate mode : Constant
Bit rate : 4 778 kb/s
Nominal bit rate : 6 000 kb/s
Width : 1 280 pixels
Height : 720 pixels
Display aspect ratio : 16:9
Frame rate mode : Constant
Frame rate : 23.976 (24000/1001) FPS
Color space : YUV
Chroma subsampling : 4:2:0
Bit depth : 8 bits
Scan type : Progressive
Bits/(Pixel*Frame) : 0.216
Stream size : 1.41 GiB (88%)
Language : English
Default : Yes
Forced : No
Color range : Limited
Color primaries : BT.709
Transfer characteristics : BT.709
Matrix coefficients : BT.709

Audio
ID : 2
Format : E-AC-3
Format/Info : Enhanced Audio Coding 3
Format settings, Endianness : Big
Codec ID : A_EAC3
Duration : 42 min 12 s
Bit rate mode : Constant
Bit rate : 640 kb/s
Channel(s) : 6 channels
Channel positions : Front: L C R, Side: L R, LFE
Sampling rate : 48.0 kHz
Frame rate : 187.500 FPS (256 SPF)
Compression mode : Lossy
Stream size : 193 MiB (12%)
Language : English
Service kind : Complete Main
Default : Yes
Forced : No

Text
ID : 3
Format : UTF-8
Codec ID : S_TEXT/UTF8
Codec ID/Info : UTF-8 Plain Text
Duration : 42 min 5 s
Bit rate : 89 b/s
Count of elements : 1026
Stream size : 27.5 KiB (0%)
Title : English
Language : English
Default : No
Forced : No





DC's Legends of Tomorrow S06E03


DC's Legends of Tomorrow S06E03


DC's Legends of Tomorrow S06E03


DC's Legends of Tomorrow S06E03


DC's Legends of Tomorrow S06E03

All episodes