Index
# A B C D E F G H I J K L M N O P Q R S T U V W Y Z
Tags
Language
Tags

Featured TV Shows


DC's Legends of Tomorrow S07E02

Posted By: Tavaz
720p (HD) / WEBRip IMDb
DC's Legends of Tomorrow S07E02

DC's Legends of Tomorrow S07E02
WEBRip | MKV | 1280x720 | English | H264 @ 5486 kbps | E-AC-3 @ 640 kbps | 41 min 46 s | 1.79 GiB
Subtitles: English
Genre: Drama


When heroes alone are not enough … the world needs legends. Having seen the future, one he will desperately try to prevent from happening, time-traveling rogue Rip Hunter is tasked with assembling a disparate group of both heroes and villains to confront an unstoppable threat — one in which not only is the planet at stake, but all of time itself. Can this ragtag team defeat an immortal threat unlike anything they have ever known?

bebb79ef2c2c48a3acc365865dd35a17.mkv (1.8 GB)



General
Unique ID : 178900793598234725741853971312710006267 (0x86970A1FB8FA928DBA146428C00835FB)
Complete name : ./bebb79ef2c2c48a3acc365865dd35a17.mkv
Format : Matroska
Format version : Version 4 / Version 2
File size : 1.79 GiB
Duration : 41 min 46 s
Overall bit rate : 6 129 kb/s
Encoded date : UTC 2021-10-21 04:27:33
Writing application : mkvmerge v61.0.0 ('So') 64-bit
Writing library : libebml v1.4.2 + libmatroska v1.6.4

Video
ID : 1
Format : AVC
Format/Info : Advanced Video Codec
Format profile : High@L3.1
Format settings : CABAC / 4 Ref Frames
Format settings, CABAC : Yes
Format settings, RefFrames : 4 frames
Codec ID : V_MPEG4/ISO/AVC
Duration : 41 min 46 s
Bit rate mode : Constant
Bit rate : 5 487 kb/s
Nominal bit rate : 6 000 kb/s
Width : 1 280 pixels
Height : 720 pixels
Display aspect ratio : 16:9
Frame rate mode : Constant
Frame rate : 23.976 (24000/1001) FPS
Color space : YUV
Chroma subsampling : 4:2:0
Bit depth : 8 bits
Scan type : Progressive
Bits/(Pixel*Frame) : 0.248
Stream size : 1.60 GiB (90%)
Language : English
Default : Yes
Forced : No
Color range : Limited
Color primaries : BT.709
Transfer characteristics : BT.709
Matrix coefficients : BT.709

Audio
ID : 2
Format : E-AC-3
Format/Info : Enhanced Audio Coding 3
Format settings, Endianness : Big
Codec ID : A_EAC3
Duration : 41 min 46 s
Bit rate mode : Constant
Bit rate : 640 kb/s
Channel(s) : 6 channels
Channel positions : Front: L C R, Side: L R, LFE
Sampling rate : 48.0 kHz
Frame rate : 187.500 FPS (256 SPF)
Compression mode : Lossy
Stream size : 191 MiB (10%)
Language : English
Service kind : Complete Main
Default : Yes
Forced : No

Text
ID : 3
Format : UTF-8
Codec ID : S_TEXT/UTF8
Codec ID/Info : UTF-8 Plain Text
Duration : 41 min 38 s
Bit rate : 88 b/s
Count of elements : 848
Stream size : 27.0 KiB (0%)
Title : English
Language : English
Default : No
Forced : No





DC's Legends of Tomorrow S07E02


DC's Legends of Tomorrow S07E02


DC's Legends of Tomorrow S07E02


DC's Legends of Tomorrow S07E02


DC's Legends of Tomorrow S07E02

All episodes