Index
# A B C D E F G H I J K L M N O P Q R S T U V W Y Z
Tags
Language
Tags

Featured TV Shows


DC's Legends of Tomorrow S01E13

Posted By: Tavaz
1080p (FullHD) / BDRip IMDb
DC's Legends of Tomorrow S01E13

DC's Legends of Tomorrow S01E13
BluRay Remux | MKV | 1920x1080 | English | H264 @ 13054 kbps | DTS | 42 min 29 s | 4.68 GiB
Subtitles: Français, Suomi, Español, Svenska, Nederlands, Dansk, English, Português
Genre: Drama


When heroes alone are not enough … the world needs legends. Having seen the future, one he will desperately try to prevent from happening, time-traveling rogue Rip Hunter is tasked with assembling a disparate group of both heroes and villains to confront an unstoppable threat — one in which not only is the planet at stake, but all of time itself. Can this ragtag team defeat an immortal threat unlike anything they have ever known?

78fb944eb23f5350ad44f58ddce7b5c6.mkv (4.7 GB)



General
Unique ID : 99665690932841477172946558745423686140 (0x4AFAE9F2B33C8C9F7205BC7B4454A9FC)
Complete name : ./78fb944eb23f5350ad44f58ddce7b5c6.mkv
Format : Matroska
Format version : Version 4 / Version 2
File size : 4.68 GiB
Duration : 42 min 29 s
Overall bit rate mode : Variable
Overall bit rate : 15.8 Mb/s
Movie name : DC's Legends of Tomorrow - S01E13 - Leviathan
Track name/Position : 13
Track name/Total : 16
Encoded date : UTC 2020-04-30 21:34:41
Writing application : mkvmerge v45.0.0 ('Heaven in Pennies') 64-bit
Writing library : libebml v1.3.10 + libmatroska v1.5.2
IMDB : tt4952746
TMDB : tv/62643
TVDB : 295760

Video
ID : 1
Format : AVC
Format/Info : Advanced Video Codec
Format profile : High@L4
Format settings : CABAC / 2 Ref Frames
Format settings, CABAC : Yes
Format settings, RefFrames : 2 frames
Codec ID : V_MPEG4/ISO/AVC
Duration : 42 min 29 s
Bit rate mode : Variable
Bit rate : 13.1 Mb/s
Maximum bit rate : 24.0 Mb/s
Width : 1 920 pixels
Height : 1 080 pixels
Display aspect ratio : 16:9
Frame rate mode : Constant
Frame rate : 23.976 (24000/1001) FPS
Color space : YUV
Chroma subsampling : 4:2:0
Bit depth : 8 bits
Scan type : Progressive
Bits/(Pixel*Frame) : 0.263
Stream size : 3.87 GiB (83%)
Title : MPEG-4 AVC Video / 13055 kbps / 1080p / 23.976 fps / 16:9 / High Profile 4.0
Language : English
Default : Yes
Forced : No

Audio
ID : 2
Format : DTS
Format/Info : Digital Theater Systems
Format profile : MA / Core
Mode : 16
Format settings, Endianness : Big
Codec ID : A_DTS
Duration : 42 min 27 s
Bit rate mode : Variable / Constant
Bit rate : 2 323 kb/s / 1 509 kb/s
Channel(s) : 6 channels
Channel positions : Front: L C R, Side: L R, LFE
Sampling rate : 48.0 kHz
Frame rate : 93.750 FPS (512 SPF)
Bit depth : 16 bits
Compression mode : Lossless / Lossy
Stream size : 705 MiB (15%)
Title : DTS-HD Master Audio / 5.1 / 48 kHz / 2321 kbps / 16-bit
Language : English
Default : Yes
Forced : No

Text #1
ID : 3
Format : PGS
Codec ID : S_HDMV/PGS
Codec ID/Info : Picture based subtitle format used on BDs/HD-DVDs
Duration : 42 min 24 s
Bit rate : 47.3 kb/s
Count of elements : 1486
Stream size : 14.4 MiB (0%)
Title : SDH
Language : English
Default : No
Forced : No

Text #2
ID : 4
Format : PGS
Codec ID : S_HDMV/PGS
Codec ID/Info : Picture based subtitle format used on BDs/HD-DVDs
Duration : 42 min 24 s
Bit rate : 41.0 kb/s
Count of elements : 1240
Stream size : 12.4 MiB (0%)
Language : Danish
Default : No
Forced : No

Text #3
ID : 5
Format : PGS
Codec ID : S_HDMV/PGS
Codec ID/Info : Picture based subtitle format used on BDs/HD-DVDs
Duration : 42 min 24 s
Bit rate : 44.3 kb/s
Count of elements : 1408
Stream size : 13.4 MiB (0%)
Language : Dutch
Default : No
Forced : No

Text #4
ID : 6
Format : PGS
Codec ID : S_HDMV/PGS
Codec ID/Info : Picture based subtitle format used on BDs/HD-DVDs
Duration : 42 min 24 s
Bit rate : 42.8 kb/s
Count of elements : 1242
Stream size : 13.0 MiB (0%)
Language : Finnish
Default : No
Forced : No

Text #5
ID : 7
Format : PGS
Codec ID : S_HDMV/PGS
Codec ID/Info : Picture based subtitle format used on BDs/HD-DVDs
Duration : 42 min 24 s
Bit rate : 41.5 kb/s
Count of elements : 1244
Stream size : 12.6 MiB (0%)
Language : French
Default : No
Forced : No

Text #6
ID : 8
Format : PGS
Codec ID : S_HDMV/PGS
Codec ID/Info : Picture based subtitle format used on BDs/HD-DVDs
Duration : 42 min 24 s
Bit rate : 41.8 kb/s
Count of elements : 1240
Stream size : 12.7 MiB (0%)
Language : Norwegian
Default : No
Forced : No

Text #7
ID : 9
Format : PGS
Codec ID : S_HDMV/PGS
Codec ID/Info : Picture based subtitle format used on BDs/HD-DVDs
Duration : 42 min 24 s
Bit rate : 44.2 kb/s
Count of elements : 1416
Stream size : 13.4 MiB (0%)
Title : Brazilian
Language : Portuguese
Default : No
Forced : No

Text #8
ID : 10
Format : PGS
Codec ID : S_HDMV/PGS
Codec ID/Info : Picture based subtitle format used on BDs/HD-DVDs
Duration : 42 min 24 s
Bit rate : 42.5 kb/s
Count of elements : 1418
Stream size : 12.9 MiB (0%)
Title : Latin American
Language : Spanish
Default : No
Forced : No

Text #9
ID : 11
Format : PGS
Codec ID : S_HDMV/PGS
Codec ID/Info : Picture based subtitle format used on BDs/HD-DVDs
Duration : 42 min 24 s
Bit rate : 39.3 kb/s
Count of elements : 1238
Stream size : 11.9 MiB (0%)
Language : Swedish
Default : No
Forced : No

Menu
00:00:00.000 : en:Chapter 1
00:00:56.515 : en:Chapter 2
00:05:14.814 : en:Chapter 3
00:10:40.139 : en:Chapter 4
00:16:28.154 : en:Chapter 5
00:23:06.427 : en:Chapter 6
00:30:34.666 : en:Chapter 7
00:36:29.938 : en:Chapter 8
00:42:00.226 : en:Chapter 9





DC's Legends of Tomorrow S01E13


DC's Legends of Tomorrow S01E13


DC's Legends of Tomorrow S01E13


DC's Legends of Tomorrow S01E13


DC's Legends of Tomorrow S01E13

All episodes