Index
# A B C D E F G H I J K L M N O P Q R S T U V W Y Z
Tags
Language
Tags

Featured TV Shows


DC's Legends of Tomorrow S02E01

Posted By: Tavaz
1080p (FullHD) / BDRip IMDb
DC's Legends of Tomorrow S02E01

DC's Legends of Tomorrow S02E01
BDRip | MKV | 1920x1080 | English | H264 @ 5760 kbps | AC-3 @ 448 kbps | 42 min 32 s | 1.84 GiB
Subtitles: English
Genre: Drama


When heroes alone are not enough … the world needs legends. Having seen the future, one he will desperately try to prevent from happening, time-traveling rogue Rip Hunter is tasked with assembling a disparate group of both heroes and villains to confront an unstoppable threat — one in which not only is the planet at stake, but all of time itself. Can this ragtag team defeat an immortal threat unlike anything they have ever known?

DCs.Legends.of.Tomorrow.S02E01.Out.Of.Time.1080p.BluRay.x264-OFT.mkv (1.8 GB)



General
Unique ID : 287268743023954672555176959740232309775 (0xD81DF28A9E051F292FFD462113E39C0F)
Complete name : ./DCs.Legends.of.Tomorrow.S02E01.Out.Of.Time.1080p.BluRay.x264-OFT.mkv
Format : Matroska
Format version : Version 4 / Version 2
File size : 1.84 GiB
Duration : 42 min 32 s
Overall bit rate : 6 206 kb/s
Encoded date : UTC 2021-11-16 00:05:34 / UTC 2021-11-15T04:06:40Z
Writing application : mkvmerge v47.0.0 ('Black Flag') 64-bit
Writing library : libebml v1.3.10 + libmatroska v1.5.2 / Lavf57.7.2

Video
ID : 1
Format : AVC
Format/Info : Advanced Video Codec
Format profile : High@L4
Format settings : CABAC / 4 Ref Frames
Format settings, CABAC : Yes
Format settings, RefFrames : 4 frames
Codec ID : V_MPEG4/ISO/AVC
Duration : 42 min 32 s
Bit rate : 5 760 kb/s
Width : 1 920 pixels
Height : 1 080 pixels
Display aspect ratio : 16:9
Frame rate mode : Constant
Frame rate : 23.976 (24000/1001) FPS
Color space : YUV
Chroma subsampling : 4:2:0
Bit depth : 8 bits
Scan type : Progressive
Bits/(Pixel*Frame) : 0.116
Stream size : 1.67 GiB (91%)
Writing library : x264 core 155 r2901 7d0ff22
Encoding settings : cabac=1 / ref=4 / deblock=1:-3:-3 / analyse=0x3:0x133 / me=umh / subme=9 / psy=1 / psy_rd=1.10:0.25 / mixed_ref=1 / me_range=32 / chroma_me=1 / trellis=2 / 8x8dct=1 / cqm=0 / deadzone=6,6 / fast_pskip=1 / chroma_qp_offset=-4 / threads=34 / lookahead_threads=3 / sliced_threads=0 / nr=0 / decimate=1 / interlaced=0 / bluray_compat=0 / constrained_intra=0 / bframes=6 / b_pyramid=2 / b_adapt=2 / b_bias=0 / direct=3 / weightb=1 / open_gop=0 / weightp=2 / keyint=240 / keyint_min=24 / scenecut=40 / intra_refresh=0 / rc_lookahead=40 / rc=2pass / mbtree=1 / bitrate=5760 / ratetol=1.0 / qcomp=0.60 / qpmin=0 / qpmax=69 / qpstep=4 / cplxblur=20.0 / qblur=0.5 / vbv_maxrate=20000 / vbv_bufsize=25000 / nal_hrd=none / filler=0 / ip_ratio=1.40 / aq=1:1.00
Language : English
Default : Yes
Forced : No
Color range : Limited
Color primaries : BT.709
Transfer characteristics : BT.709
Matrix coefficients : BT.709
Statistics Tags Issue : mkvmerge v47.0.0 ('Black Flag') 64-bit 2021-11-16 00:05:34 / mkvmerge v47.0.0 ('Black Flag') 64-bit 2021-11-16 00:05:34 / UTC 2021-11-15T04:06:40Z
FromStats_BitRate : 5755743
FromStats_Duration : 00:42:32.967000000
FromStats_FrameCount : 61210
FromStats_StreamSize : 1836777803

Audio
ID : 2
Format : AC-3
Format/Info : Audio Coding 3
Format settings, Endianness : Big
Codec ID : A_AC3
Duration : 42 min 32 s
Bit rate mode : Constant
Bit rate : 448 kb/s
Channel(s) : 6 channels
Channel positions : Front: L C R, Side: L R, LFE
Sampling rate : 48.0 kHz
Frame rate : 31.250 FPS (1536 SPF)
Bit depth : 16 bits
Compression mode : Lossy
Stream size : 136 MiB (7%)
Title : Surround
Language : English
Service kind : Complete Main
Default : Yes
Forced : No
Statistics Tags Issue : mkvmerge v47.0.0 ('Black Flag') 64-bit 2021-11-16 00:05:34 / mkvmerge v47.0.0 ('Black Flag') 64-bit 2021-11-16 00:05:34 / UTC 2021-11-15T04:06:40Z
FromStats_BitRate : 448000
FromStats_Duration : 00:42:32.960000000
FromStats_FrameCount : 79780
FromStats_StreamSize : 142965760

Text
ID : 3
Format : UTF-8
Codec ID : S_TEXT/UTF8
Codec ID/Info : UTF-8 Plain Text
Language : English
Default : Yes
Forced : No
Statistics Tags Issue : mkvmerge v47.0.0 ('Black Flag') 64-bit 2021-11-16 00:05:34 / mkvmerge v47.0.0 ('Black Flag') 64-bit 2021-11-16 00:05:34 / UTC 2021-11-15T04:06:40Z
FromStats_BitRate : 88
FromStats_Duration : 00:42:28.504000000
FromStats_FrameCount : 736
FromStats_StreamSize : 28065

Menu
00:00:00.000 : :Chapter 1
00:00:34.368 : :Chapter 2
00:03:48.145 : :Chapter 3
00:12:24.619 : :Chapter 4
00:21:12.730 : :Chapter 5
00:29:13.460 : :Chapter 6
00:33:55.367 : :Chapter 7
00:38:48.952 : :Chapter 8
00:42:04.063 : :Chapter 9





DC's Legends of Tomorrow S02E01


DC's Legends of Tomorrow S02E01


DC's Legends of Tomorrow S02E01


DC's Legends of Tomorrow S02E01


DC's Legends of Tomorrow S02E01

All episodes