Index
# A B C D E F G H I J K L M N O P Q R S T U V W Y Z
Tags
Language
Tags

Featured TV Shows


DC's Legends of Tomorrow S02E13

Posted By: Tavaz
1080p (FullHD) / WEB-DL IMDb
DC's Legends of Tomorrow S02E13

DC's Legends of Tomorrow S02E13
WEB-DL | MKV | 1912x1072 | English | H264 @ 5185 kbps | AC-3 @ 384 kbps | 42 min 13 s | 1.64 GiB
Subtitles: English
Genre: Drama


When heroes alone are not enough … the world needs legends. Having seen the future, one he will desperately try to prevent from happening, time-traveling rogue Rip Hunter is tasked with assembling a disparate group of both heroes and villains to confront an unstoppable threat — one in which not only is the planet at stake, but all of time itself. Can this ragtag team defeat an immortal threat unlike anything they have ever known?

0772fbf2f9a14c0b97987dded9351f35.mkv (1.6 GB)



General
Unique ID : 203425984048509879874467345356566282517 (0x990A6B5EC070D6CE8FD70575AD57C115)
Complete name : ./0772fbf2f9a14c0b97987dded9351f35.mkv
Format : Matroska
Format version : Version 4 / Version 2
File size : 1.64 GiB
Duration : 42 min 13 s
Overall bit rate : 5 572 kb/s
Movie name : DCs.Legends.of.Tomorrow.S02E13.1080p.WEB-DL.DD5.1.H264-LiGaS
Encoded date : UTC 2017-03-08 18:37:30
Writing application : mkvmerge v9.8.0 ('Kuglblids') 64bit
Writing library : libebml v1.3.4 + libmatroska v1.4.5

Video
ID : 1
Format : AVC
Format/Info : Advanced Video Codec
Format profile : High@L4
Format settings : CABAC / 4 Ref Frames
Format settings, CABAC : Yes
Format settings, RefFrames : 4 frames
Codec ID : V_MPEG4/ISO/AVC
Duration : 42 min 13 s
Bit rate : 5 186 kb/s
Width : 1 912 pixels
Height : 1 072 pixels
Display aspect ratio : 16:9
Frame rate mode : Constant
Frame rate : 23.976 (23976/1000) FPS
Color space : YUV
Chroma subsampling : 4:2:0
Bit depth : 8 bits
Scan type : Progressive
Bits/(Pixel*Frame) : 0.106
Stream size : 1.53 GiB (93%)
Title : DCs.Legends.of.Tomorrow.S02E13.1080p.WEB-DL.DD5.1.H264-LiGaS
Language : English
Default : Yes
Forced : No
Color range : Limited
Color primaries : BT.709
Transfer characteristics : BT.709
Matrix coefficients : BT.709

Audio
ID : 2
Format : AC-3
Format/Info : Audio Coding 3
Format settings, Endianness : Big
Codec ID : A_AC3
Duration : 42 min 13 s
Bit rate mode : Constant
Bit rate : 384 kb/s
Channel(s) : 6 channels
Channel positions : Front: L C R, Side: L R, LFE
Sampling rate : 48.0 kHz
Frame rate : 31.250 FPS (1536 SPF)
Bit depth : 16 bits
Compression mode : Lossy
Stream size : 116 MiB (7%)
Title : DCs.Legends.of.Tomorrow.S02E13.1080p.WEB-DL.DD5.1.H264-LiGaS
Language : English
Service kind : Complete Main
Default : Yes
Forced : No

Text
ID : 3
Format : UTF-8
Codec ID : S_TEXT/UTF8
Codec ID/Info : UTF-8 Plain Text
Duration : 42 min 7 s
Bit rate : 78 b/s
Count of elements : 766
Stream size : 24.3 KiB (0%)
Language : English
Default : Yes
Forced : No





DC's Legends of Tomorrow S02E13


DC's Legends of Tomorrow S02E13


DC's Legends of Tomorrow S02E13


DC's Legends of Tomorrow S02E13


DC's Legends of Tomorrow S02E13

All episodes