Index
# A B C D E F G H I J K L M N O P Q R S T U V W Y Z
Tags
Language
Tags

Featured TV Shows


DC's Legends of Tomorrow S02E17

Posted By: Tavaz
1080p (FullHD) / WEB-DL IMDb
DC's Legends of Tomorrow S02E17

DC's Legends of Tomorrow S02E17
WEB-DL | MKV | 1912x1072 | English | H264 @ 5190 kbps | AC-3 @ 384 kbps | 41 min 27 s | 1.62 GiB
Subtitles: English
Genre: Drama


When heroes alone are not enough … the world needs legends. Having seen the future, one he will desperately try to prevent from happening, time-traveling rogue Rip Hunter is tasked with assembling a disparate group of both heroes and villains to confront an unstoppable threat — one in which not only is the planet at stake, but all of time itself. Can this ragtag team defeat an immortal threat unlike anything they have ever known?

10d1b82b40b744dd978f716c6366a3db.mkv (1.6 GB)



General
Unique ID : 216577395947007357124574375190617846720 (0xA2EF4A09DFE928B0A009E66E3D22F3C0)
Complete name : ./10d1b82b40b744dd978f716c6366a3db.mkv
Format : Matroska
Format version : Version 4 / Version 2
File size : 1.62 GiB
Duration : 41 min 27 s
Overall bit rate : 5 577 kb/s
Movie name : DCs.Legends.of.Tomorrow.S02E17.1080p.WEB-DL.DD5.1.H264-LiGaS
Encoded date : UTC 2017-04-05 08:49:59
Writing application : mkvmerge v9.8.0 ('Kuglblids') 64bit
Writing library : libebml v1.3.4 + libmatroska v1.4.5

Video
ID : 1
Format : AVC
Format/Info : Advanced Video Codec
Format profile : High@L4
Format settings : CABAC / 4 Ref Frames
Format settings, CABAC : Yes
Format settings, RefFrames : 4 frames
Codec ID : V_MPEG4/ISO/AVC
Duration : 41 min 27 s
Bit rate : 5 191 kb/s
Width : 1 912 pixels
Height : 1 072 pixels
Display aspect ratio : 16:9
Frame rate mode : Constant
Frame rate : 23.976 (23976/1000) FPS
Color space : YUV
Chroma subsampling : 4:2:0
Bit depth : 8 bits
Scan type : Progressive
Bits/(Pixel*Frame) : 0.106
Stream size : 1.50 GiB (93%)
Title : DCs.Legends.of.Tomorrow.S02E17.1080p.WEB-DL.DD5.1.H264-LiGaS
Language : English
Default : Yes
Forced : No
Color range : Limited
Color primaries : BT.709
Transfer characteristics : BT.709
Matrix coefficients : BT.709

Audio
ID : 2
Format : AC-3
Format/Info : Audio Coding 3
Format settings, Endianness : Big
Codec ID : A_AC3
Duration : 41 min 27 s
Bit rate mode : Constant
Bit rate : 384 kb/s
Channel(s) : 6 channels
Channel positions : Front: L C R, Side: L R, LFE
Sampling rate : 48.0 kHz
Frame rate : 31.250 FPS (1536 SPF)
Bit depth : 16 bits
Compression mode : Lossy
Stream size : 114 MiB (7%)
Title : DCs.Legends.of.Tomorrow.S02E17.1080p.WEB-DL.DD5.1.H264-LiGaS
Language : English
Service kind : Complete Main
Default : Yes
Forced : No

Text
ID : 3
Format : UTF-8
Codec ID : S_TEXT/UTF8
Codec ID/Info : UTF-8 Plain Text
Duration : 41 min 21 s
Bit rate : 75 b/s
Count of elements : 698
Stream size : 22.9 KiB (0%)
Language : English
Default : Yes
Forced : No





DC's Legends of Tomorrow S02E17


DC's Legends of Tomorrow S02E17


DC's Legends of Tomorrow S02E17


DC's Legends of Tomorrow S02E17


DC's Legends of Tomorrow S02E17

All episodes