Index
# A B C D E F G H I J K L M N O P Q R S T U V W Y Z
Tags
Language
Tags

Featured TV Shows


DC's Legends of Tomorrow S03E14

Posted By: Tavaz
1080p (FullHD) / BDRip IMDb
DC's Legends of Tomorrow S03E14

DC's Legends of Tomorrow S03E14
BluRay Remux | MKV | 1920x1080 | English | H264 @ 11874 kbps | DTS | 42 min 31 s | 4.32 GiB
Subtitles: Français, Suomi, Español, Svenska, 日本語, Dansk, English, Nederlands
Genre: Drama


When heroes alone are not enough … the world needs legends. Having seen the future, one he will desperately try to prevent from happening, time-traveling rogue Rip Hunter is tasked with assembling a disparate group of both heroes and villains to confront an unstoppable threat — one in which not only is the planet at stake, but all of time itself. Can this ragtag team defeat an immortal threat unlike anything they have ever known?

b0ea3f74882549e5bebdb928f59b4814.mkv (4.3 GB)



General
Unique ID : 283744790830731266641566784138976010150 (0xD5774248BE5EFFDDCBF8333FC2A19FA6)
Complete name : ./b0ea3f74882549e5bebdb928f59b4814.mkv
Format : Matroska
Format version : Version 4 / Version 2
File size : 4.32 GiB
Duration : 42 min 31 s
Overall bit rate mode : Variable
Overall bit rate : 14.6 Mb/s
Movie name : Legends of Tomorrow - S03E14 - Amazing Grace
Encoded date : UTC 2018-09-26 14:00:36
Writing application : mkvmerge v26.0.0 ('In The Game') 64-bit
Writing library : libebml v1.3.6 + libmatroska v1.4.9

Video
ID : 1
Format : AVC
Format/Info : Advanced Video Codec
Format profile : High@L4.1
Format settings : CABAC / 4 Ref Frames
Format settings, CABAC : Yes
Format settings, RefFrames : 4 frames
Codec ID : V_MPEG4/ISO/AVC
Duration : 42 min 31 s
Bit rate mode : Variable
Bit rate : 11.9 Mb/s
Maximum bit rate : 32.0 Mb/s
Width : 1 920 pixels
Height : 1 080 pixels
Display aspect ratio : 16:9
Frame rate mode : Constant
Frame rate : 23.976 (24000/1001) FPS
Color space : YUV
Chroma subsampling : 4:2:0
Bit depth : 8 bits
Scan type : Progressive
Bits/(Pixel*Frame) : 0.239
Stream size : 3.53 GiB (82%)
Title : MPEG-4 AVC Video / 11998 kbps / 1080p / 23.976 fps / 16:9 / High Profile 4.1
Language : English
Default : Yes
Forced : No

Audio
ID : 2
Format : DTS
Format/Info : Digital Theater Systems
Format profile : MA / Core
Mode : 16
Format settings, Endianness : Big
Codec ID : A_DTS
Duration : 42 min 31 s
Bit rate mode : Variable / Constant
Bit rate : 2 202 kb/s / 1 509 kb/s
Channel(s) : 6 channels
Channel positions : Front: L C R, Side: L R, LFE
Sampling rate : 48.0 kHz
Frame rate : 93.750 FPS (512 SPF)
Bit depth : 16 bits
Compression mode : Lossless / Lossy
Stream size : 670 MiB (15%)
Title : DTS-HD Master Audio / 5.1 / 48 kHz / 2232 kbps / 16-bit
Language : English
Default : Yes
Forced : No

Text #1
ID : 3
Format : PGS
Codec ID : S_HDMV/PGS
Codec ID/Info : Picture based subtitle format used on BDs/HD-DVDs
Duration : 42 min 22 s
Bit rate : 55.8 kb/s
Count of elements : 1601
Stream size : 16.9 MiB (0%)
Title : SDH
Language : English
Default : No
Forced : No

Text #2
ID : 4
Format : PGS
Codec ID : S_HDMV/PGS
Codec ID/Info : Picture based subtitle format used on BDs/HD-DVDs
Duration : 42 min 22 s
Bit rate : 49.3 kb/s
Count of elements : 1504
Stream size : 14.9 MiB (0%)
Language : Danish
Default : No
Forced : No

Text #3
ID : 5
Format : PGS
Codec ID : S_HDMV/PGS
Codec ID/Info : Picture based subtitle format used on BDs/HD-DVDs
Duration : 42 min 22 s
Bit rate : 47.8 kb/s
Count of elements : 1469
Stream size : 14.5 MiB (0%)
Language : Dutch
Default : No
Forced : No

Text #4
ID : 6
Format : PGS
Codec ID : S_HDMV/PGS
Codec ID/Info : Picture based subtitle format used on BDs/HD-DVDs
Duration : 42 min 22 s
Bit rate : 49.7 kb/s
Count of elements : 1495
Stream size : 15.1 MiB (0%)
Language : Finnish
Default : No
Forced : No

Text #5
ID : 7
Format : PGS
Codec ID : S_HDMV/PGS
Codec ID/Info : Picture based subtitle format used on BDs/HD-DVDs
Duration : 42 min 22 s
Bit rate : 47.8 kb/s
Count of elements : 1499
Stream size : 14.5 MiB (0%)
Language : French
Default : No
Forced : No

Text #6
ID : 8
Format : PGS
Codec ID : S_HDMV/PGS
Codec ID/Info : Picture based subtitle format used on BDs/HD-DVDs
Duration : 41 min 50 s
Bit rate : 33.0 kb/s
Count of elements : 1286
Stream size : 9.87 MiB (0%)
Language : Japanese
Default : No
Forced : No

Text #7
ID : 9
Format : PGS
Codec ID : S_HDMV/PGS
Codec ID/Info : Picture based subtitle format used on BDs/HD-DVDs
Duration : 42 min 22 s
Bit rate : 48.7 kb/s
Count of elements : 1503
Stream size : 14.8 MiB (0%)
Language : Norwegian
Default : No
Forced : No

Text #8
ID : 10
Format : PGS
Codec ID : S_HDMV/PGS
Codec ID/Info : Picture based subtitle format used on BDs/HD-DVDs
Duration : 42 min 22 s
Bit rate : 51.0 kb/s
Count of elements : 1541
Stream size : 15.4 MiB (0%)
Title : Castilian
Language : Spanish
Default : No
Forced : No

Text #9
ID : 11
Format : PGS
Codec ID : S_HDMV/PGS
Codec ID/Info : Picture based subtitle format used on BDs/HD-DVDs
Duration : 42 min 22 s
Bit rate : 51.6 kb/s
Count of elements : 1563
Stream size : 15.6 MiB (0%)
Title : Latin American
Language : Spanish
Default : No
Forced : No

Text #10
ID : 12
Format : PGS
Codec ID : S_HDMV/PGS
Codec ID/Info : Picture based subtitle format used on BDs/HD-DVDs
Duration : 42 min 22 s
Bit rate : 48.3 kb/s
Count of elements : 1467
Stream size : 14.6 MiB (0%)
Language : Swedish
Default : No
Forced : No

Menu
00:00:00.000 : en:Chapter 1
00:00:30.447 : en:Chapter 2
00:03:04.768 : en:Chapter 3
00:11:09.168 : en:Chapter 4
00:15:53.494 : en:Chapter 5
00:21:58.108 : en:Chapter 6
00:30:45.469 : en:Chapter 7
00:38:02.155 : en:Chapter 8
00:42:02.228 : en:Chapter 9





DC's Legends of Tomorrow S03E14


DC's Legends of Tomorrow S03E14


DC's Legends of Tomorrow S03E14


DC's Legends of Tomorrow S03E14


DC's Legends of Tomorrow S03E14

All episodes