Index
# A B C D E F G H I J K L M N O P Q R S T U V W Y Z
Tags
Language
Tags

Featured TV Shows


DC's Legends of Tomorrow S04E02

Posted By: Tavaz
720p (HD) / WEBRip IMDb
DC's Legends of Tomorrow S04E02

DC's Legends of Tomorrow S04E02
WEBRip | MKV | 1280x720 | English | H264 @ 2432 kbps | AAC @ 93 kbps | 42 min 9 s | 756 MiB
Subtitles: English
Genre: Drama


When heroes alone are not enough … the world needs legends. Having seen the future, one he will desperately try to prevent from happening, time-traveling rogue Rip Hunter is tasked with assembling a disparate group of both heroes and villains to confront an unstoppable threat — one in which not only is the planet at stake, but all of time itself. Can this ragtag team defeat an immortal threat unlike anything they have ever known?

8a90120d3f234f90b867a66082cf4a87.mkv (756.4 MB)



General
Unique ID : 297221975460538549833013427412308187214 (0xDF9ADEC9D0653CCD762235442065D84E)
Complete name : ./8a90120d3f234f90b867a66082cf4a87.mkv
Format : Matroska
Format version : Version 4 / Version 2
File size : 756 MiB
Duration : 42 min 9 s
Overall bit rate : 2 508 kb/s
Encoded date : UTC 2018-10-30 05:23:32
Writing application : mkvmerge v23.0.0 ('The Bride Said No') 64-bit
Writing library : libebml v1.3.6 + libmatroska v1.4.9

Video
ID : 1
Format : AVC
Format/Info : Advanced Video Codec
Format profile : Main@L3.1
Format settings : CABAC / 3 Ref Frames
Format settings, CABAC : Yes
Format settings, RefFrames : 3 frames
Codec ID : V_MPEG4/ISO/AVC
Duration : 42 min 9 s
Bit rate mode : Constant
Bit rate : 2 432 kb/s
Width : 1 280 pixels
Height : 720 pixels
Display aspect ratio : 16:9
Frame rate mode : Constant
Frame rate : 23.976 (24000/1001) FPS
Color space : YUV
Chroma subsampling : 4:2:0
Bit depth : 8 bits
Scan type : Progressive
Bits/(Pixel*Frame) : 0.110
Stream size : 727 MiB (96%)
Default : Yes
Forced : No

Audio
ID : 2
Format : AAC
Format/Info : Advanced Audio Codec
Format profile : LC
Codec ID : A_AAC-2
Duration : 42 min 9 s
Bit rate : 93.6 kb/s
Channel(s) : 2 channels
Channel positions : Front: L R
Sampling rate : 44.1 kHz
Frame rate : 43.066 FPS (1024 SPF)
Compression mode : Lossy
Delay relative to video : -36 ms
Stream size : 28.2 MiB (4%)
Language : English
Default : Yes
Forced : No

Text
ID : 3
Format : UTF-8
Codec ID : S_TEXT/UTF8
Codec ID/Info : UTF-8 Plain Text
Duration : 42 min 4 s
Bit rate : 126 b/s
Count of elements : 953
Stream size : 39.1 KiB (0%)
Language : English
Default : No
Forced : No





DC's Legends of Tomorrow S04E02


DC's Legends of Tomorrow S04E02


DC's Legends of Tomorrow S04E02


DC's Legends of Tomorrow S04E02


DC's Legends of Tomorrow S04E02

All episodes