Index
# A B C D E F G H I J K L M N O P Q R S T U V W Y Z
Tags
Language
Tags

Featured TV Shows


DC's Legends of Tomorrow S04E12

Posted By: Tavaz
1080p (FullHD) / BDRip IMDb
DC's Legends of Tomorrow S04E12

DC's Legends of Tomorrow S04E12
BDRip | MKV | 1920x1080 | English | H265 @ 3397 kbps | AC-3 @ 448 kbps | 42 min 30 s | 1.15 GiB
Subtitles: English
Genre: Drama


When heroes alone are not enough … the world needs legends. Having seen the future, one he will desperately try to prevent from happening, time-traveling rogue Rip Hunter is tasked with assembling a disparate group of both heroes and villains to confront an unstoppable threat — one in which not only is the planet at stake, but all of time itself. Can this ragtag team defeat an immortal threat unlike anything they have ever known?

fac043dc248026df904f8d036004b3ff.mkv (1.1 GB)



General
Unique ID : 245074215503491032244697602083002360937 (0xB85F93B7D08A6C7B80D89BBCC23DA469)
Complete name : ./fac043dc248026df904f8d036004b3ff.mkv
Format : Matroska
Format version : Version 2
File size : 1.15 GiB
Duration : 42 min 30 s
Overall bit rate : 3 859 kb/s
Movie name : DCs.Legends.of.Tomorrow.S04E12.The.Eggplant.the.Witch.and.the.Wardrobe.BluRay.10Bit.1080p.DD5.1.H265-d3g
Encoded date : UTC 2020-02-22 20:38:39
Writing application : DVDFab 10.0.9.2
Writing library : libebml v1.3.4 + libmatroska v1.4.5

Video
ID : 1
Format : HEVC
Format/Info : High Efficiency Video Coding
Format profile : Main 10@L4@Main
Codec ID : V_MPEGH/ISO/HEVC
Duration : 42 min 30 s
Bit rate : 3 397 kb/s
Width : 1 920 pixels
Height : 1 080 pixels
Display aspect ratio : 16:9
Frame rate mode : Constant
Frame rate : 23.976 (24000/1001) FPS
Color space : YUV
Chroma subsampling : 4:2:0
Bit depth : 10 bits
Bits/(Pixel*Frame) : 0.068
Stream size : 1.01 GiB (88%)
Default : Yes
Forced : No
Color range : Limited
Color primaries : BT.709
Transfer characteristics : BT.709
Matrix coefficients : BT.709

Audio
ID : 2
Format : AC-3
Format/Info : Audio Coding 3
Format settings, Endianness : Big
Codec ID : A_AC3
Duration : 42 min 30 s
Bit rate mode : Constant
Bit rate : 448 kb/s
Channel(s) : 6 channels
Channel positions : Front: L C R, Side: L R, LFE
Sampling rate : 48.0 kHz
Frame rate : 31.250 FPS (1536 SPF)
Bit depth : 16 bits
Compression mode : Lossy
Stream size : 136 MiB (12%)
Language : English
Service kind : Complete Main
Default : Yes
Forced : No

Text
ID : 3
Format : VobSub
Codec ID : S_VOBSUB
Codec ID/Info : Picture based subtitle format used on DVDs
Duration : 42 min 2 s
Bit rate : 12.5 kb/s
Count of elements : 761
Stream size : 3.77 MiB (0%)
Language : English
Default : Yes
Forced : No

Menu
00:00:00.000 : en:Chapter 1
00:00:34.116 : en:Chapter 2
00:01:15.742 : en:Chapter 3
00:08:16.579 : en:Chapter 4
00:15:20.670 : en:Chapter 5
00:23:46.383 : en:Chapter 6
00:29:37.526 : en:Chapter 7
00:36:38.446 : en:Chapter 8
00:42:01.893 : en:Chapter 9





DC's Legends of Tomorrow S04E12


DC's Legends of Tomorrow S04E12


DC's Legends of Tomorrow S04E12


DC's Legends of Tomorrow S04E12


DC's Legends of Tomorrow S04E12

All episodes