Index
# A B C D E F G H I J K L M N O P Q R S T U V W Y Z
Tags
Language
Tags

Featured TV Shows


DC's Legends of Tomorrow S04E15

Posted By: Tavaz
1080p (FullHD) / BDRip IMDb
DC's Legends of Tomorrow S04E15

DC's Legends of Tomorrow S04E15
BluRay Remux | MKV | 1920x1080 | English | H264 @ 14770 kbps | DTS | 41 min 37 s | 4.98 GiB
Subtitles: Italiano, English
Genre: Drama


When heroes alone are not enough … the world needs legends. Having seen the future, one he will desperately try to prevent from happening, time-traveling rogue Rip Hunter is tasked with assembling a disparate group of both heroes and villains to confront an unstoppable threat — one in which not only is the planet at stake, but all of time itself. Can this ragtag team defeat an immortal threat unlike anything they have ever known?

b05120005c3ed6a79f4808c3826cc218.mkv (5.0 GB)



General
Unique ID : 15224109530240220328772889043673296590 (0xB740E8D340E7DEA25E62B03CC902ECE)
Complete name : ./b05120005c3ed6a79f4808c3826cc218.mkv
Format : Matroska
Format version : Version 4 / Version 2
File size : 4.98 GiB
Duration : 41 min 37 s
Overall bit rate mode : Variable
Overall bit rate : 17.1 Mb/s
Movie name : DC's Legends of Tomorrow - S04E15 - Terms of Service
Track name/Position : 15
Track name/Total : 16
Encoded date : UTC 2020-02-22 04:07:03
Writing application : mkvmerge v43.0.0 ('The Quartermaster') 64-bit
Writing library : libebml v1.3.10 + libmatroska v1.5.2
IMDB : tt8312964
TMDB : tv/62643
TVDB : 295760

Video
ID : 1
Format : AVC
Format/Info : Advanced Video Codec
Format profile : High@L4.1
Format settings : CABAC / 4 Ref Frames
Format settings, CABAC : Yes
Format settings, RefFrames : 4 frames
Codec ID : V_MPEG4/ISO/AVC
Duration : 41 min 37 s
Bit rate mode : Variable
Bit rate : 14.8 Mb/s
Maximum bit rate : 38.0 Mb/s
Width : 1 920 pixels
Height : 1 080 pixels
Display aspect ratio : 16:9
Frame rate mode : Constant
Frame rate : 23.976 (24000/1001) FPS
Color space : YUV
Chroma subsampling : 4:2:0
Bit depth : 8 bits
Scan type : Progressive
Bits/(Pixel*Frame) : 0.297
Stream size : 4.30 GiB (86%)
Title : MPEG-4 AVC Video / 14295 kbps / 1080p / 23.976 fps / 16:9 / High Profile 4.1
Language : English
Default : Yes
Forced : No

Audio
ID : 2
Format : DTS
Format/Info : Digital Theater Systems
Format profile : MA / Core
Mode : 16
Format settings, Endianness : Big
Codec ID : A_DTS
Duration : 41 min 37 s
Bit rate mode : Variable / Constant
Bit rate : 2 256 kb/s / 1 509 kb/s
Channel(s) : 6 channels
Channel positions : Front: L C R, Side: L R, LFE
Sampling rate : 48.0 kHz
Frame rate : 93.750 FPS (512 SPF)
Bit depth : 16 bits
Compression mode : Lossless / Lossy
Stream size : 672 MiB (13%)
Title : DTS-HD Master Audio / 5.1 / 48 kHz / 2256 kbps / 16-bit
Language : English
Default : Yes
Forced : No

Text #1
ID : 3
Format : PGS
Codec ID : S_HDMV/PGS
Codec ID/Info : Picture based subtitle format used on BDs/HD-DVDs
Duration : 41 min 10 s
Bit rate : 52.2 kb/s
Count of elements : 1758
Stream size : 15.4 MiB (0%)
Language : English
Default : No
Forced : No

Text #2
ID : 4
Format : PGS
Codec ID : S_HDMV/PGS
Codec ID/Info : Picture based subtitle format used on BDs/HD-DVDs
Duration : 41 min 9 s
Bit rate : 54.2 kb/s
Count of elements : 1774
Stream size : 15.9 MiB (0%)
Language : Italian
Default : No
Forced : No

Menu
00:00:00.000 : en:Chapter 1
00:00:32.491 : en:Chapter 2
00:02:26.188 : en:Chapter 3
00:06:37.939 : en:Chapter 4
00:14:17.940 : en:Chapter 5
00:19:17.448 : en:Chapter 6
00:29:18.215 : en:Chapter 7
00:35:34.799 : en:Chapter 8
00:41:08.925 : en:Chapter 9





DC's Legends of Tomorrow S04E15


DC's Legends of Tomorrow S04E15


DC's Legends of Tomorrow S04E15


DC's Legends of Tomorrow S04E15


DC's Legends of Tomorrow S04E15

All episodes