Index
# A B C D E F G H I J K L M N O P Q R S T U V W Y Z
Tags
Language
Tags

Featured TV Shows


DC's Legends of Tomorrow S04E16

Posted By: Tavaz
1080p (FullHD) / BDRip IMDb
DC's Legends of Tomorrow S04E16

DC's Legends of Tomorrow S04E16
BluRay Remux | MKV | 1920x1080 | English | H264 @ 14778 kbps | DTS | 42 min 28 s | 5.10 GiB
Subtitles: Italiano, English
Genre: Drama


When heroes alone are not enough … the world needs legends. Having seen the future, one he will desperately try to prevent from happening, time-traveling rogue Rip Hunter is tasked with assembling a disparate group of both heroes and villains to confront an unstoppable threat — one in which not only is the planet at stake, but all of time itself. Can this ragtag team defeat an immortal threat unlike anything they have ever known?

31d00fdc1e87a0520d05d723467eaf6c.mkv (5.1 GB)



General
Unique ID : 48634578625518736716899113578932251829 (0x2496ADDB835AF9B33253149032ACACB5)
Complete name : ./31d00fdc1e87a0520d05d723467eaf6c.mkv
Format : Matroska
Format version : Version 4 / Version 2
File size : 5.10 GiB
Duration : 42 min 28 s
Overall bit rate mode : Variable
Overall bit rate : 17.2 Mb/s
Movie name : DC's Legends of Tomorrow - S04E16 - Hey, World!
Track name/Position : 16
Track name/Total : 16
Encoded date : UTC 2020-02-22 04:07:19
Writing application : mkvmerge v43.0.0 ('The Quartermaster') 64-bit
Writing library : libebml v1.3.10 + libmatroska v1.5.2
IMDB : tt8312968
TMDB : tv/62643
TVDB : 295760

Video
ID : 1
Format : AVC
Format/Info : Advanced Video Codec
Format profile : High@L4.1
Format settings : CABAC / 4 Ref Frames
Format settings, CABAC : Yes
Format settings, RefFrames : 4 frames
Codec ID : V_MPEG4/ISO/AVC
Duration : 42 min 28 s
Bit rate mode : Variable
Bit rate : 14.8 Mb/s
Maximum bit rate : 38.0 Mb/s
Width : 1 920 pixels
Height : 1 080 pixels
Display aspect ratio : 16:9
Frame rate mode : Constant
Frame rate : 23.976 (24000/1001) FPS
Color space : YUV
Chroma subsampling : 4:2:0
Bit depth : 8 bits
Scan type : Progressive
Bits/(Pixel*Frame) : 0.297
Stream size : 4.39 GiB (86%)
Title : MPEG-4 AVC Video / 14295 kbps / 1080p / 23.976 fps / 16:9 / High Profile 4.1
Language : English
Default : Yes
Forced : No

Audio
ID : 2
Format : DTS
Format/Info : Digital Theater Systems
Format profile : MA / Core
Mode : 16
Format settings, Endianness : Big
Codec ID : A_DTS
Duration : 42 min 28 s
Bit rate mode : Variable / Constant
Bit rate : 2 293 kb/s / 1 509 kb/s
Channel(s) : 6 channels
Channel positions : Front: L C R, Side: L R, LFE
Sampling rate : 48.0 kHz
Frame rate : 93.750 FPS (512 SPF)
Bit depth : 16 bits
Compression mode : Lossless / Lossy
Stream size : 697 MiB (13%)
Title : DTS-HD Master Audio / 5.1 / 48 kHz / 2293 kbps / 16-bit
Language : English
Default : Yes
Forced : No

Text #1
ID : 3
Format : PGS
Codec ID : S_HDMV/PGS
Codec ID/Info : Picture based subtitle format used on BDs/HD-DVDs
Duration : 42 min 1 s
Bit rate : 50.3 kb/s
Count of elements : 1570
Stream size : 15.1 MiB (0%)
Language : English
Default : No
Forced : No

Text #2
ID : 4
Format : PGS
Codec ID : S_HDMV/PGS
Codec ID/Info : Picture based subtitle format used on BDs/HD-DVDs
Duration : 42 min 1 s
Bit rate : 52.9 kb/s
Count of elements : 1590
Stream size : 15.9 MiB (0%)
Language : Italian
Default : No
Forced : No

Menu
00:00:00.000 : en:Chapter 1
00:00:41.083 : en:Chapter 2
00:02:36.948 : en:Chapter 3
00:06:58.543 : en:Chapter 4
00:11:32.150 : en:Chapter 5
00:19:09.106 : en:Chapter 6
00:26:12.237 : en:Chapter 7
00:33:38.683 : en:Chapter 8
00:42:00.059 : en:Chapter 9





DC's Legends of Tomorrow S04E16


DC's Legends of Tomorrow S04E16


DC's Legends of Tomorrow S04E16


DC's Legends of Tomorrow S04E16


DC's Legends of Tomorrow S04E16

All episodes