Index
# A B C D E F G H I J K L M N O P Q R S T U V W Y Z
Tags
Language
Tags

Featured TV Shows


DC's Legends of Tomorrow S05E03

Posted By: Tavaz
1080p (FullHD) / BDRip IMDb
DC's Legends of Tomorrow S05E03

DC's Legends of Tomorrow S05E03
BluRay Remux | MKV | 1920x1080 | English | H264 @ 23803 kbps | DTS | 42 min 22 s | 7.72 GiB
Subtitles: English
Genre: Drama


When heroes alone are not enough … the world needs legends. Having seen the future, one he will desperately try to prevent from happening, time-traveling rogue Rip Hunter is tasked with assembling a disparate group of both heroes and villains to confront an unstoppable threat — one in which not only is the planet at stake, but all of time itself. Can this ragtag team defeat an immortal threat unlike anything they have ever known?

DCs.Legends.of.Tomorrow.S05E03.Miss.Me.Kiss.Me.Love.Me.1080p.BluRay.Remux.AVC.DTS-HD.MA.5.1-PmP-AsRequested.mkv (7.7 GB)



General
Unique ID : 53768176814174336619099869616306575551 (0x28735FCA23B03A540B144F861A9AD8BF)
Complete name : ./DCs.Legends.of.Tomorrow.S05E03.Miss.Me.Kiss.Me.Love.Me.1080p.BluRay.Remux.AVC.DTS-HD.MA.5.1-PmP-AsRequested.mkv
Format : Matroska
Format version : Version 4 / Version 2
File size : 7.72 GiB
Duration : 42 min 22 s
Overall bit rate mode : Variable
Overall bit rate : 26.1 Mb/s
Encoded date : UTC 2020-09-23 22:13:43
Writing application : mkvmerge v50.0.0 ('Awakenings') 64-bit
Writing library : libebml v1.4.0 + libmatroska v1.6.2

Video
ID : 1
Format : AVC
Format/Info : Advanced Video Codec
Format profile : High@L4.1
Format settings : CABAC / 4 Ref Frames
Format settings, CABAC : Yes
Format settings, RefFrames : 4 frames
Codec ID : V_MPEG4/ISO/AVC
Duration : 42 min 21 s
Bit rate mode : Variable
Bit rate : 23.8 Mb/s
Maximum bit rate : 38.0 Mb/s
Width : 1 920 pixels
Height : 1 080 pixels
Display aspect ratio : 16:9
Frame rate mode : Constant
Frame rate : 23.976 (24000/1001) FPS
Color space : YUV
Chroma subsampling : 4:2:0
Bit depth : 8 bits
Scan type : Progressive
Bits/(Pixel*Frame) : 0.479
Stream size : 7.04 GiB (91%)
Title : MPEG-4 AVC Video / 24081 kbps / 1080p / 23.976 fps / 16:9 / High Profile 4.1
Language : English
Default : Yes
Forced : No

Audio
ID : 2
Format : DTS
Format/Info : Digital Theater Systems
Format profile : MA / Core
Mode : 16
Format settings, Endianness : Big
Codec ID : A_DTS
Duration : 42 min 22 s
Bit rate mode : Variable / Constant
Bit rate : 2 216 kb/s / 1 509 kb/s
Channel(s) : 6 channels
Channel positions : Front: L C R, Side: L R, LFE
Sampling rate : 48.0 kHz
Frame rate : 93.750 FPS (512 SPF)
Bit depth : 16 bits
Compression mode : Lossless / Lossy
Stream size : 671 MiB (8%)
Title : DTS-HD Master Audio / 5.1 / 48 kHz / 2216 kbps / 16-bit
Language : English
Default : Yes
Forced : No

Text
ID : 3
Format : PGS
Codec ID : S_HDMV/PGS
Codec ID/Info : Picture based subtitle format used on BDs/HD-DVDs
Duration : 41 min 53 s
Bit rate : 53.9 kb/s
Count of elements : 1504
Stream size : 16.1 MiB (0%)
Title : SDH
Language : English
Default : No
Forced : No

Menu
00:00:00.000 : en:Chapter 1
00:00:27.569 : en:Chapter 2
00:10:38.054 : en:Chapter 3
00:17:26.670 : en:Chapter 4
00:22:31.975 : en:Chapter 5
00:31:15.123 : en:Chapter 6
00:36:18.134 : en:Chapter 7
00:41:53.928 : en:Chapter 8





DC's Legends of Tomorrow S05E03


DC's Legends of Tomorrow S05E03


DC's Legends of Tomorrow S05E03


DC's Legends of Tomorrow S05E03


DC's Legends of Tomorrow S05E03

All episodes