Index
# A B C D E F G H I J K L M N O P Q R S T U V W Y Z
Tags
Language
Tags

Featured TV Shows


DC's Legends of Tomorrow S05E04

Posted By: Tavaz
1080p (FullHD) / WEBRip IMDb
DC's Legends of Tomorrow S05E04

DC's Legends of Tomorrow S05E04
WEBRip | MKV | 1920x1080 | English | H264 @ 8000 kbps | AAC @ 125 kbps | 42 min 20 s | 2.38 GiB
Genre: Drama


When heroes alone are not enough … the world needs legends. Having seen the future, one he will desperately try to prevent from happening, time-traveling rogue Rip Hunter is tasked with assembling a disparate group of both heroes and villains to confront an unstoppable threat — one in which not only is the planet at stake, but all of time itself. Can this ragtag team defeat an immortal threat unlike anything they have ever known?

e19c421d259e4875a93b6f7612819eb7.mkv (2.4 GB)



General
Unique ID : 135817055792721143454192371798290789343 (0x662D69D93BCBCFA83A66F4A1C5A4F3DF)
Complete name : ./e19c421d259e4875a93b6f7612819eb7.mkv
Format : Matroska
Format version : Version 4 / Version 2
File size : 2.38 GiB
Duration : 42 min 20 s
Overall bit rate : 8 050 kb/s
Encoded date : UTC 2020-02-12 06:02:17
Writing application : mkvmerge v38.0.0 ('The Silent Type') 64-bit
Writing library : libebml v1.3.9 + libmatroska v1.5.2

Video
ID : 1
Format : AVC
Format/Info : Advanced Video Codec
Format profile : High@L4
Format settings : CABAC / 3 Ref Frames
Format settings, CABAC : Yes
Format settings, RefFrames : 3 frames
Codec ID : V_MPEG4/ISO/AVC
Duration : 42 min 20 s
Bit rate mode : Constant
Bit rate : 8 000 kb/s
Width : 1 920 pixels
Height : 1 080 pixels
Display aspect ratio : 16:9
Frame rate mode : Constant
Frame rate : 23.976 (24000/1001) FPS
Color space : YUV
Chroma subsampling : 4:2:0
Bit depth : 8 bits
Scan type : Progressive
Bits/(Pixel*Frame) : 0.161
Stream size : 2.34 GiB (98%)
Default : Yes
Forced : No

Audio
ID : 2
Format : AAC
Format/Info : Advanced Audio Codec
Format profile : LC
Codec ID : A_AAC-2
Duration : 42 min 20 s
Bit rate : 126 kb/s
Channel(s) : 2 channels
Channel positions : Front: L R
Sampling rate : 44.1 kHz
Frame rate : 43.066 FPS (1024 SPF)
Compression mode : Lossy
Stream size : 38.0 MiB (2%)
Language : English
Default : Yes
Forced : No





DC's Legends of Tomorrow S05E04


DC's Legends of Tomorrow S05E04


DC's Legends of Tomorrow S05E04


DC's Legends of Tomorrow S05E04


DC's Legends of Tomorrow S05E04

All episodes