Index
# A B C D E F G H I J K L M N O P Q R S T U V W Y Z
Tags
Language
Tags

Featured TV Shows


DC's Legends of Tomorrow S05E04

Posted By: Tavaz
1080p (FullHD) / BDRip IMDb
DC's Legends of Tomorrow S05E04

DC's Legends of Tomorrow S05E04
BDRip | MKV | 1920x1080 | Français / English | H264 @ 9364 kbps | AC-3 @ 192 kbps | 42 min 25 s | 3.28 GiB
Subtitles: Français
Genre: Drama


When heroes alone are not enough … the world needs legends. Having seen the future, one he will desperately try to prevent from happening, time-traveling rogue Rip Hunter is tasked with assembling a disparate group of both heroes and villains to confront an unstoppable threat — one in which not only is the planet at stake, but all of time itself. Can this ragtag team defeat an immortal threat unlike anything they have ever known?

3e6c440838634e9e9bef7ccffdc2c3bd.mkv (3.3 GB)



General
Unique ID : 217737109135345669759447310969578854865 (0xA3CEA4503414AB4CDBADFD24987E19D1)
Complete name : ./3e6c440838634e9e9bef7ccffdc2c3bd.mkv
Format : Matroska
Format version : Version 4 / Version 2
File size : 3.28 GiB
Duration : 42 min 25 s
Overall bit rate : 11.1 Mb/s
Encoded date : UTC 2021-10-07 21:45:01
Writing application : mkvmerge v19.0.0 ('Brave Captain') 64-bit
Writing library : libebml v1.3.5 + libmatroska v1.4.8

Video
ID : 1
Format : AVC
Format/Info : Advanced Video Codec
Format profile : High@L4.1
Format settings : CABAC / 4 Ref Frames
Format settings, CABAC : Yes
Format settings, RefFrames : 4 frames
Codec ID : V_MPEG4/ISO/AVC
Duration : 42 min 25 s
Bit rate : 9 364 kb/s
Width : 1 920 pixels
Height : 1 080 pixels
Display aspect ratio : 16:9
Frame rate mode : Constant
Frame rate : 23.976 (24000/1001) FPS
Color space : YUV
Chroma subsampling : 4:2:0
Bit depth : 8 bits
Scan type : Progressive
Bits/(Pixel*Frame) : 0.188
Stream size : 2.77 GiB (85%)
Writing library : x264 core 164 r3065 ae03d92
Encoding settings : cabac=1 / ref=4 / deblock=1:0:0 / analyse=0x3:0x133 / me=umh / subme=8 / psy=1 / psy_rd=1.00:0.00 / mixed_ref=1 / me_range=16 / chroma_me=1 / trellis=1 / 8x8dct=1 / cqm=0 / deadzone=21,11 / fast_pskip=1 / chroma_qp_offset=-2 / threads=24 / lookahead_threads=4 / sliced_threads=0 / nr=0 / decimate=1 / interlaced=0 / bluray_compat=0 / constrained_intra=0 / bframes=3 / b_pyramid=2 / b_adapt=1 / b_bias=0 / direct=3 / weightb=1 / open_gop=0 / weightp=2 / keyint=240 / keyint_min=23 / scenecut=40 / intra_refresh=0 / rc_lookahead=50 / rc=2pass / mbtree=1 / bitrate=9364 / ratetol=1.0 / qcomp=0.60 / qpmin=0 / qpmax=69 / qpstep=4 / cplxblur=20.0 / qblur=0.5 / ip_ratio=1.40 / aq=1:1.00
Language : English
Default : Yes
Forced : No

Audio #1
ID : 2
Format : AC-3
Format/Info : Audio Coding 3
Mode : Dolby Digital
Format settings, Endianness : Big
Codec ID : A_AC3
Duration : 42 min 25 s
Bit rate mode : Constant
Bit rate : 192 kb/s
Channel(s) : 2 channels
Channel positions : Front: L R
Sampling rate : 48.0 kHz
Frame rate : 31.250 FPS (1536 SPF)
Bit depth : 16 bits
Compression mode : Lossy
Stream size : 58.3 MiB (2%)
Title : French AC3 192kbps
Language : French
Service kind : Complete Main
Default : Yes
Forced : No

Audio #2
ID : 3
Format : DTS
Format/Info : Digital Theater Systems
Mode : 16
Format settings, Endianness : Big
Codec ID : A_DTS
Duration : 42 min 25 s
Bit rate mode : Constant
Bit rate : 1 509 kb/s
Channel(s) : 6 channels
Channel positions : Front: L C R, Side: L R, LFE
Sampling rate : 48.0 kHz
Frame rate : 93.750 FPS (512 SPF)
Bit depth : 24 bits
Compression mode : Lossy
Stream size : 458 MiB (14%)
Title : English DTS 1509kbps
Language : English
Default : No
Forced : No

Text #1
ID : 4
Format : UTF-8
Codec ID : S_TEXT/UTF8
Codec ID/Info : UTF-8 Plain Text
Duration : 25 min 2 s
Bit rate : 2 b/s
Count of elements : 13
Stream size : 377 Bytes (0%)
Title : Forced
Language : French
Default : Yes
Forced : No

Text #2
ID : 5
Format : UTF-8
Codec ID : S_TEXT/UTF8
Codec ID/Info : UTF-8 Plain Text
Duration : 42 min 14 s
Bit rate : 69 b/s
Count of elements : 646
Stream size : 21.5 KiB (0%)
Title : French
Language : French
Default : No
Forced : No

Menu
00:00:00.000 : en:00:00:00.000
00:00:23.607 : en:00:00:23.607
00:06:39.608 : en:00:06:39.608
00:11:31.065 : en:00:11:31.065
00:17:24.252 : en:00:17:24.252
00:25:08.382 : en:00:25:08.382
00:30:24.197 : en:00:30:24.197
00:35:27.292 : en:00:35:27.292
00:41:57.181 : en:00:41:57.181





DC's Legends of Tomorrow S05E04


DC's Legends of Tomorrow S05E04


DC's Legends of Tomorrow S05E04


DC's Legends of Tomorrow S05E04


DC's Legends of Tomorrow S05E04

All episodes