Index
# A B C D E F G H I J K L M N O P Q R S T U V W Y Z
Tags
Language
Tags

Featured TV Shows


DC's Legends of Tomorrow S05E04

Posted By: Tavaz
1080p (FullHD) / BDRip IMDb
DC's Legends of Tomorrow S05E04

DC's Legends of Tomorrow S05E04
BluRay Remux | MKV | 1920x1080 | English | H264 @ 21078 kbps | DTS | 42 min 25 s | 6.94 GiB
Subtitles: English
Genre: Drama


When heroes alone are not enough … the world needs legends. Having seen the future, one he will desperately try to prevent from happening, time-traveling rogue Rip Hunter is tasked with assembling a disparate group of both heroes and villains to confront an unstoppable threat — one in which not only is the planet at stake, but all of time itself. Can this ragtag team defeat an immortal threat unlike anything they have ever known?

DCs.Legends.of.Tomorrow.S05E04.Slay.Anything.1080p.BluRay.Remux.AVC.DTS-HD.MA.5.1-PmP-AsRequested.mkv (6.9 GB)



General
Unique ID : 154544919933220677838496919628991916309 (0x744444D6F92818DF6F90B91C62736915)
Complete name : ./DCs.Legends.of.Tomorrow.S05E04.Slay.Anything.1080p.BluRay.Remux.AVC.DTS-HD.MA.5.1-PmP-AsRequested.mkv
Format : Matroska
Format version : Version 4 / Version 2
File size : 6.94 GiB
Duration : 42 min 25 s
Overall bit rate mode : Variable
Overall bit rate : 23.4 Mb/s
Encoded date : UTC 2020-09-23 22:20:38
Writing application : mkvmerge v50.0.0 ('Awakenings') 64-bit
Writing library : libebml v1.4.0 + libmatroska v1.6.2

Video
ID : 1
Format : AVC
Format/Info : Advanced Video Codec
Format profile : High@L4.1
Format settings : CABAC / 4 Ref Frames
Format settings, CABAC : Yes
Format settings, RefFrames : 4 frames
Codec ID : V_MPEG4/ISO/AVC
Duration : 42 min 25 s
Bit rate mode : Variable
Bit rate : 21.1 Mb/s
Maximum bit rate : 38.0 Mb/s
Width : 1 920 pixels
Height : 1 080 pixels
Display aspect ratio : 16:9
Frame rate mode : Constant
Frame rate : 23.976 (24000/1001) FPS
Color space : YUV
Chroma subsampling : 4:2:0
Bit depth : 8 bits
Scan type : Progressive
Bits/(Pixel*Frame) : 0.424
Stream size : 6.25 GiB (90%)
Title : MPEG-4 AVC Video / 21333 kbps / 1080p / 23.976 fps / 16:9 / High Profile 4.1
Language : English
Default : Yes
Forced : No

Audio
ID : 2
Format : DTS
Format/Info : Digital Theater Systems
Format profile : MA / Core
Mode : 16
Format settings, Endianness : Big
Codec ID : A_DTS
Duration : 42 min 25 s
Bit rate mode : Variable / Constant
Bit rate : 2 295 kb/s / 1 509 kb/s
Channel(s) : 6 channels
Channel positions : Front: L C R, Side: L R, LFE
Sampling rate : 48.0 kHz
Frame rate : 93.750 FPS (512 SPF)
Bit depth : 16 bits
Compression mode : Lossless / Lossy
Stream size : 696 MiB (10%)
Title : DTS-HD Master Audio / 5.1 / 48 kHz / 2295 kbps / 16-bit
Language : English
Default : Yes
Forced : No

Text
ID : 3
Format : PGS
Codec ID : S_HDMV/PGS
Codec ID/Info : Picture based subtitle format used on BDs/HD-DVDs
Duration : 41 min 57 s
Bit rate : 48.8 kb/s
Count of elements : 1488
Stream size : 14.6 MiB (0%)
Title : SDH
Language : English
Default : No
Forced : No

Menu
00:00:00.000 : en:Chapter 1
00:00:23.606 : en:Chapter 2
00:06:39.607 : en:Chapter 3
00:11:31.065 : en:Chapter 4
00:17:24.251 : en:Chapter 5
00:25:08.381 : en:Chapter 6
00:30:24.197 : en:Chapter 7
00:35:27.291 : en:Chapter 8
00:41:57.181 : en:Chapter 9





DC's Legends of Tomorrow S05E04


DC's Legends of Tomorrow S05E04


DC's Legends of Tomorrow S05E04


DC's Legends of Tomorrow S05E04


DC's Legends of Tomorrow S05E04

All episodes