Index
# A B C D E F G H I J K L M N O P Q R S T U V W Y Z
Tags
Language
Tags

Featured TV Shows


DC's Legends of Tomorrow S05E07

Posted By: Tavaz
1080p (FullHD) / BDRip IMDb
DC's Legends of Tomorrow S05E07

DC's Legends of Tomorrow S05E07
BluRay Remux | MKV | 1920x1080 | English | H264 @ 21164 kbps | DTS | 42 min 31 s | 6.94 GiB
Subtitles: English
Genre: Drama


When heroes alone are not enough … the world needs legends. Having seen the future, one he will desperately try to prevent from happening, time-traveling rogue Rip Hunter is tasked with assembling a disparate group of both heroes and villains to confront an unstoppable threat — one in which not only is the planet at stake, but all of time itself. Can this ragtag team defeat an immortal threat unlike anything they have ever known?

DCs.Legends.of.Tomorrow.S05E07.Mr.Parkers.Cul-de-Sac.1080p.BluRay.Remux.AVC.DTS-HD.MA.5.1-PmP-AsRequested.mkv (6.9 GB)



General
Unique ID : 180677967515046012470059745855742668678 (0x87ED4F901E5BCBCBCCA2EB69336FEF86)
Complete name : ./DCs.Legends.of.Tomorrow.S05E07.Mr.Parkers.Cul-de-Sac.1080p.BluRay.Remux.AVC.DTS-HD.MA.5.1-PmP-AsRequested.mkv
Format : Matroska
Format version : Version 4 / Version 2
File size : 6.94 GiB
Duration : 42 min 31 s
Overall bit rate mode : Variable
Overall bit rate : 23.4 Mb/s
Encoded date : UTC 2020-09-24 02:29:56
Writing application : mkvmerge v50.0.0 ('Awakenings') 64-bit
Writing library : libebml v1.4.0 + libmatroska v1.6.2

Video
ID : 1
Format : AVC
Format/Info : Advanced Video Codec
Format profile : High@L4.1
Format settings : CABAC / 4 Ref Frames
Format settings, CABAC : Yes
Format settings, RefFrames : 4 frames
Codec ID : V_MPEG4/ISO/AVC
Duration : 42 min 31 s
Bit rate mode : Variable
Bit rate : 21.2 Mb/s
Maximum bit rate : 38.0 Mb/s
Width : 1 920 pixels
Height : 1 080 pixels
Display aspect ratio : 16:9
Frame rate mode : Constant
Frame rate : 23.976 (24000/1001) FPS
Color space : YUV
Chroma subsampling : 4:2:0
Bit depth : 8 bits
Scan type : Progressive
Bits/(Pixel*Frame) : 0.426
Stream size : 6.29 GiB (91%)
Title : MPEG-4 AVC Video / 21425 kbps / 1080p / 23.976 fps / 16:9 / High Profile 4.1
Language : English
Default : Yes
Forced : No

Audio
ID : 2
Format : DTS
Format/Info : Digital Theater Systems
Format profile : MA / Core
Mode : 16
Format settings, Endianness : Big
Codec ID : A_DTS
Duration : 42 min 31 s
Bit rate mode : Variable / Constant
Bit rate : 2 166 kb/s / 1 509 kb/s
Channel(s) : 6 channels
Channel positions : Front: L C R, Side: L R, LFE
Sampling rate : 48.0 kHz
Frame rate : 93.750 FPS (512 SPF)
Bit depth : 16 bits
Compression mode : Lossless / Lossy
Stream size : 659 MiB (9%)
Title : DTS-HD Master Audio / 5.1 / 48 kHz / 2166 kbps / 16-bit
Language : English
Default : Yes
Forced : No

Text
ID : 3
Format : PGS
Codec ID : S_HDMV/PGS
Codec ID/Info : Picture based subtitle format used on BDs/HD-DVDs
Duration : 42 min 2 s
Bit rate : 51.7 kb/s
Count of elements : 1620
Stream size : 15.5 MiB (0%)
Title : SDH
Language : English
Default : No
Forced : No

Menu
00:00:00.000 : en:Chapter 1
00:06:02.528 : en:Chapter 2
00:11:30.648 : en:Chapter 3
00:19:49.813 : en:Chapter 4
00:28:22.283 : en:Chapter 5
00:35:36.259 : en:Chapter 6
00:42:02.102 : en:Chapter 7





DC's Legends of Tomorrow S05E07


DC's Legends of Tomorrow S05E07


DC's Legends of Tomorrow S05E07


DC's Legends of Tomorrow S05E07


DC's Legends of Tomorrow S05E07

All episodes