Index
# A B C D E F G H I J K L M N O P Q R S T U V W Y Z
Tags
Language
Tags

Featured TV Shows


DC's Legends of Tomorrow S05E08

Posted By: Tavaz
1080p (FullHD) / BDRip IMDb
DC's Legends of Tomorrow S05E08

DC's Legends of Tomorrow S05E08
BluRay Remux | MKV | 1920x1080 | English | H264 @ 20744 kbps | DTS | 42 min 31 s | 6.83 GiB
Subtitles: English
Genre: Drama


When heroes alone are not enough … the world needs legends. Having seen the future, one he will desperately try to prevent from happening, time-traveling rogue Rip Hunter is tasked with assembling a disparate group of both heroes and villains to confront an unstoppable threat — one in which not only is the planet at stake, but all of time itself. Can this ragtag team defeat an immortal threat unlike anything they have ever known?

DCs.Legends.of.Tomorrow.S05E08.Romeo.V.Juliet.Dawn.of.Justness.1080p.BluRay.Remux.AVC.DTS-HD.MA.5.1-PmP-AsRequested.mkv (6.8 GB)



General
Unique ID : 26199371510100081870472845495169981863 (0x13B5D0BECF94ED6AE2A501A91FB81DA7)
Complete name : ./DCs.Legends.of.Tomorrow.S05E08.Romeo.V.Juliet.Dawn.of.Justness.1080p.BluRay.Remux.AVC.DTS-HD.MA.5.1-PmP-AsRequested.mkv
Format : Matroska
Format version : Version 4 / Version 2
File size : 6.83 GiB
Duration : 42 min 31 s
Overall bit rate mode : Variable
Overall bit rate : 23.0 Mb/s
Encoded date : UTC 2020-09-24 03:21:11
Writing application : mkvmerge v50.0.0 ('Awakenings') 64-bit
Writing library : libebml v1.4.0 + libmatroska v1.6.2

Video
ID : 1
Format : AVC
Format/Info : Advanced Video Codec
Format profile : High@L4.1
Format settings : CABAC / 4 Ref Frames
Format settings, CABAC : Yes
Format settings, RefFrames : 4 frames
Codec ID : V_MPEG4/ISO/AVC
Duration : 42 min 31 s
Bit rate mode : Variable
Bit rate : 20.7 Mb/s
Maximum bit rate : 38.0 Mb/s
Width : 1 920 pixels
Height : 1 080 pixels
Display aspect ratio : 16:9
Frame rate mode : Constant
Frame rate : 23.976 (24000/1001) FPS
Color space : YUV
Chroma subsampling : 4:2:0
Bit depth : 8 bits
Scan type : Progressive
Bits/(Pixel*Frame) : 0.417
Stream size : 6.16 GiB (90%)
Title : MPEG-4 AVC Video / 21045 kbps / 1080p / 23.976 fps / 16:9 / High Profile 4.1
Language : English
Default : Yes
Forced : No

Audio
ID : 2
Format : DTS
Format/Info : Digital Theater Systems
Format profile : MA / Core
Mode : 16
Format settings, Endianness : Big
Codec ID : A_DTS
Duration : 42 min 31 s
Bit rate mode : Variable / Constant
Bit rate : 2 193 kb/s / 1 509 kb/s
Channel(s) : 6 channels
Channel positions : Front: L C R, Side: L R, LFE
Sampling rate : 48.0 kHz
Frame rate : 93.750 FPS (512 SPF)
Bit depth : 16 bits
Compression mode : Lossless / Lossy
Stream size : 667 MiB (10%)
Title : DTS-HD Master Audio / 5.1 / 48 kHz / 2193 kbps / 16-bit
Language : English
Default : Yes
Forced : No

Text
ID : 3
Format : PGS
Codec ID : S_HDMV/PGS
Codec ID/Info : Picture based subtitle format used on BDs/HD-DVDs
Duration : 42 min 3 s
Bit rate : 54.7 kb/s
Count of elements : 1664
Stream size : 16.4 MiB (0%)
Title : SDH
Language : English
Default : No
Forced : No

Menu
00:00:00.000 : en:Chapter 1
00:00:23.940 : en:Chapter 2
00:04:26.015 : en:Chapter 3
00:09:03.417 : en:Chapter 4
00:15:16.832 : en:Chapter 5
00:19:48.270 : en:Chapter 6
00:29:10.707 : en:Chapter 7
00:37:00.801 : en:Chapter 8
00:42:02.853 : en:Chapter 9





DC's Legends of Tomorrow S05E08


DC's Legends of Tomorrow S05E08


DC's Legends of Tomorrow S05E08


DC's Legends of Tomorrow S05E08


DC's Legends of Tomorrow S05E08

All episodes