Index
# A B C D E F G H I J K L M N O P Q R S T U V W Y Z
Tags
Language
Tags

Featured TV Shows


DC's Legends of Tomorrow S05E13

Posted By: Tavaz
720p (HD) / WEBRip IMDb
DC's Legends of Tomorrow S05E13

DC's Legends of Tomorrow S05E13
WEBRip | MKV | 960x540 | English | H264 @ 1200 kbps | AAC @ 93 kbps | 42 min 26 s | 390 MiB
Genre: Drama


When heroes alone are not enough … the world needs legends. Having seen the future, one he will desperately try to prevent from happening, time-traveling rogue Rip Hunter is tasked with assembling a disparate group of both heroes and villains to confront an unstoppable threat — one in which not only is the planet at stake, but all of time itself. Can this ragtag team defeat an immortal threat unlike anything they have ever known?

537c3013e204470daf405e945635cc95.mkv (389.9 MB)



General
Unique ID : 21612110186356461179791874204769279295 (0x1042574CE2B1DDDD0E0D0BE8AF1D5D3F)
Complete name : ./537c3013e204470daf405e945635cc95.mkv
Format : Matroska
Format version : Version 4 / Version 2
File size : 390 MiB
Duration : 42 min 26 s
Overall bit rate : 1 285 kb/s
Encoded date : UTC 2020-05-20 04:55:19
Writing application : mkvmerge v43.0.0 ('The Quartermaster') 64-bit
Writing library : libebml v1.3.10 + libmatroska v1.5.2

Video
ID : 1
Format : AVC
Format/Info : Advanced Video Codec
Format profile : Main@L3.1
Format settings : CABAC / 3 Ref Frames
Format settings, CABAC : Yes
Format settings, RefFrames : 3 frames
Codec ID : V_MPEG4/ISO/AVC
Duration : 42 min 26 s
Bit rate mode : Constant
Bit rate : 1 200 kb/s
Width : 960 pixels
Height : 540 pixels
Display aspect ratio : 16:9
Frame rate mode : Constant
Frame rate : 23.976 (24000/1001) FPS
Color space : YUV
Chroma subsampling : 4:2:0
Bit depth : 8 bits
Scan type : Progressive
Bits/(Pixel*Frame) : 0.097
Stream size : 361 MiB (93%)
Default : Yes
Forced : No

Audio
ID : 2
Format : AAC
Format/Info : Advanced Audio Codec
Format profile : LC
Codec ID : A_AAC-2
Duration : 42 min 26 s
Bit rate : 93.6 kb/s
Channel(s) : 2 channels
Channel positions : Front: L R
Sampling rate : 44.1 kHz
Frame rate : 43.066 FPS (1024 SPF)
Compression mode : Lossy
Delay relative to video : -36 ms
Stream size : 28.4 MiB (7%)
Language : English
Default : Yes
Forced : No





DC's Legends of Tomorrow S05E13


DC's Legends of Tomorrow S05E13


DC's Legends of Tomorrow S05E13


DC's Legends of Tomorrow S05E13


DC's Legends of Tomorrow S05E13

All episodes