Index
# A B C D E F G H I J K L M N O P Q R S T U V W Y Z
Tags
Language
Tags

Featured TV Shows


DC's Legends of Tomorrow S06E04

Posted By: Tavaz
720p (HD) / HDTV IMDb
DC's Legends of Tomorrow S06E04

DC's Legends of Tomorrow S06E04
HDTV | MKV | 1280x718 | H264 @ 2448 kbps | AC-3 @ 384 kbps | 42 min 10 s | 855 MiB
Genre: Drama


When heroes alone are not enough … the world needs legends. Having seen the future, one he will desperately try to prevent from happening, time-traveling rogue Rip Hunter is tasked with assembling a disparate group of both heroes and villains to confront an unstoppable threat — one in which not only is the planet at stake, but all of time itself. Can this ragtag team defeat an immortal threat unlike anything they have ever known?

e08d8ab2b9854721908a2b599716e85f.mkv (854.8 MB)



General
Unique ID : 81303514731170044566693786895621214123 (0x3D2A7CC3A7DB58BE255EABA9B3EACFAB)
Complete name : ./e08d8ab2b9854721908a2b599716e85f.mkv
Format : Matroska
Format version : Version 4 / Version 2
File size : 855 MiB
Duration : 42 min 10 s
Overall bit rate : 2 834 kb/s
Encoded date : UTC 2021-05-24 01:36:55
Writing application : mkvmerge v44.0.0 ('Domino') 64-bit
Writing library : libebml v1.3.10 + libmatroska v1.5.2

Video
ID : 1
Format : AVC
Format/Info : Advanced Video Codec
Format profile : High@L4.1
Format settings : CABAC / 5 Ref Frames
Format settings, CABAC : Yes
Format settings, RefFrames : 5 frames
Codec ID : V_MPEG4/ISO/AVC
Duration : 42 min 10 s
Bit rate : 2 448 kb/s
Width : 1 280 pixels
Height : 718 pixels
Display aspect ratio : 16:9
Frame rate mode : Constant
Frame rate : 23.976 (24000/1001) FPS
Color space : YUV
Chroma subsampling : 4:2:0
Bit depth : 8 bits
Scan type : Progressive
Bits/(Pixel*Frame) : 0.111
Stream size : 738 MiB (86%)
Writing library : x264 core 163 r3059 b684ebe
Encoding settings : cabac=1 / ref=5 / deblock=1:0:0 / analyse=0x3:0x113 / me=hex / subme=8 / psy=1 / psy_rd=1.00:0.00 / mixed_ref=1 / me_range=16 / chroma_me=1 / trellis=2 / 8x8dct=1 / cqm=0 / deadzone=21,11 / fast_pskip=1 / chroma_qp_offset=-2 / threads=22 / lookahead_threads=3 / sliced_threads=0 / nr=0 / decimate=1 / interlaced=0 / bluray_compat=0 / constrained_intra=0 / bframes=3 / b_pyramid=2 / b_adapt=1 / b_bias=0 / direct=3 / weightb=1 / open_gop=0 / weightp=2 / keyint=250 / keyint_min=23 / scenecut=40 / intra_refresh=0 / rc_lookahead=50 / rc=crf / mbtree=1 / crf=18.0 / qcomp=0.60 / qpmin=0 / qpmax=69 / qpstep=4 / ip_ratio=1.40 / aq=1:1.00
Language : English
Default : Yes
Forced : No
Color range : Limited
Matrix coefficients : BT.709

Audio
ID : 2
Format : AC-3
Format/Info : Audio Coding 3
Format settings, Endianness : Big
Codec ID : A_AC3
Duration : 42 min 10 s
Bit rate mode : Constant
Bit rate : 384 kb/s
Channel(s) : 6 channels
Channel positions : Front: L C R, Side: L R, LFE
Sampling rate : 48.0 kHz
Frame rate : 31.250 FPS (1536 SPF)
Bit depth : 16 bits
Compression mode : Lossy
Stream size : 116 MiB (14%)
Service kind : Complete Main
Default : Yes
Forced : No





DC's Legends of Tomorrow S06E04


DC's Legends of Tomorrow S06E04


DC's Legends of Tomorrow S06E04


DC's Legends of Tomorrow S06E04


DC's Legends of Tomorrow S06E04

All episodes