Index
# A B C D E F G H I J K L M N O P Q R S T U V W Y Z
Tags
Language
Tags

Featured TV Shows


DC's Legends of Tomorrow S07E01

Posted By: Tavaz
720p (HD) / HDTV IMDb
DC's Legends of Tomorrow S07E01

DC's Legends of Tomorrow S07E01
HDTV | MOV | 768x576 | English | H264 @ 977 kbps | AC-3 @ 128 kbps | 50 min 38 s | 402 MiB
Genre: Drama


When heroes alone are not enough … the world needs legends. Having seen the future, one he will desperately try to prevent from happening, time-traveling rogue Rip Hunter is tasked with assembling a disparate group of both heroes and villains to confront an unstoppable threat — one in which not only is the planet at stake, but all of time itself. Can this ragtag team defeat an immortal threat unlike anything they have ever known?

S07E01.mp4 (401.6 MB)



General
Complete name : ./S07E01.mp4
Format : MPEG-4
Format profile : Base Media / Version 2
Codec ID : mp42 (mp42/isom/avc1)
File size : 402 MiB
Duration : 50 min 38 s
Overall bit rate mode : Variable
Overall bit rate : 1 109 kb/s
Movie name : S07E01
Encoded date : UTC 2021-10-12 22:15:18
Tagged date : UTC 2021-10-12 22:17:39
Writing application : DVDFab 11.0.4.2
Cover : Yes

Video
ID : 1
Format : AVC
Format/Info : Advanced Video Codec
Format profile : Main@L3.1
Format settings : CABAC / 2 Ref Frames
Format settings, CABAC : Yes
Format settings, RefFrames : 2 frames
Format settings, GOP : M=1, N=25
Codec ID : avc1
Codec ID/Info : Advanced Video Coding
Duration : 50 min 38 s
Bit rate mode : Variable
Bit rate : 977 kb/s
Maximum bit rate : 1 461 kb/s
Width : 768 pixels
Height : 576 pixels
Display aspect ratio : 4:3
Frame rate mode : Constant
Frame rate : 25.000 FPS
Color space : YUV
Chroma subsampling : 4:2:0
Bit depth : 8 bits
Scan type : Progressive
Bits/(Pixel*Frame) : 0.088
Stream size : 354 MiB (88%)
Encoded date : UTC 2021-10-12 22:15:18
Tagged date : UTC 2021-10-12 22:17:39
Color primaries : BT.601 NTSC
Transfer characteristics : BT.709
Matrix coefficients : BT.601
Menus : 3

Audio
ID : 2
Format : AC-3
Format/Info : Audio Coding 3
Format settings, Endianness : Big
Codec ID : ac-3
Duration : 50 min 38 s
Bit rate mode : Constant
Bit rate : 128 kb/s
Channel(s) : 2 channels
Channel positions : Front: L R
Sampling rate : 48.0 kHz
Frame rate : 31.250 FPS (1536 SPF)
Bit depth : 16 bits
Compression mode : Lossy
Stream size : 46.4 MiB (12%)
Title : English (ac3 2.0)
Language : English
Service kind : Complete Main
Default : Yes
Alternate group : 1
Encoded date : UTC 2021-10-12 22:15:18
Tagged date : UTC 2021-10-12 22:17:39

Menu
ID : 3
Codec ID : text
Duration : 50 min 38 s
Encoded date : UTC 2021-10-12 22:15:18
Tagged date : UTC 2021-10-12 22:17:39
Bit rate mode : CBR
Menu For : 1
00:00:00.000 : Chapter 1
00:07:21.000 : Chapter 2
00:17:22.600 : Chapter 3
00:26:55.160 : Chapter 4
00:37:51.400 : Chapter 5
00:49:29.200 : Chapter 6





DC's Legends of Tomorrow S07E01


DC's Legends of Tomorrow S07E01


DC's Legends of Tomorrow S07E01


DC's Legends of Tomorrow S07E01


DC's Legends of Tomorrow S07E01

All episodes