Featured TV Shows


Dark Matter S03E01

Posted By: Tavaz
1080p (FullHD) / WEB-DL IMDb
Dark Matter S03E01

Dark Matter S03E01
WEB-DL | MKV | 1920x1080 | English | H264 @ 7931 kbps | E-AC-3 @ 640 kbps | 43 min 5 s | 2.63 GiB
Subtitles: English
Genre: Science Fiction, Drama, Thriller

The six-person crew of a derelict spaceship awakens from stasis in the farthest reaches of space. Their memories wiped clean, they have no recollection of who they are or how they got on board. The only clue to their identities is a cargo bay full of weaponry and a destination: a remote mining colony that is about to become a war zone. With no idea whose side they are on, they face a deadly decision. Will these amnesiacs turn their backs on history, or will their pasts catch up with them?

41a56d8ad1184a7b9312b7ce4444c737.mkv (2.6 GB)



General
Unique ID : 0 (0x0)
Complete name : ./41a56d8ad1184a7b9312b7ce4444c737.mkv
Format : Matroska
Format version : Version 4 / Version 2
File size : 2.63 GiB
Duration : 43 min 5 s
Overall bit rate mode : Variable
Overall bit rate : 8 745 kb/s
Encoded date : UTC 2010-02-22 21:41:29
Writing application : no_variable_data
Writing library : no_variable_data

Video
ID : 1
Format : AVC
Format/Info : Advanced Video Codec
Format profile : High@L4
Format settings : CABAC / 4 Ref Frames
Format settings, CABAC : Yes
Format settings, RefFrames : 4 frames
Codec ID : V_MPEG4/ISO/AVC
Duration : 43 min 5 s
Bit rate mode : Variable
Bit rate : 7 931 kb/s
Maximum bit rate : 15.0 Mb/s
Width : 1 920 pixels
Height : 1 080 pixels
Display aspect ratio : 16:9
Frame rate mode : Constant
Frame rate : 23.976 (24000/1001) FPS
Color space : YUV
Chroma subsampling : 4:2:0
Bit depth : 8 bits
Scan type : Progressive
Bits/(Pixel*Frame) : 0.160
Stream size : 2.39 GiB (91%)
Default : Yes
Forced : No
Color range : Limited
Color primaries : BT.709
Transfer characteristics : BT.709
Matrix coefficients : BT.709
Statistics Tags Issue : no_variable_data 1970-01-01 00:00:00 / no_variable_data 2010-02-22 21:41:29
FromStats_BitRate : 8103373
FromStats_Duration : 00:43:05.667000000
FromStats_FrameCount : 61994
FromStats_StreamSize : 2619078126

Audio
ID : 2
Format : E-AC-3
Format/Info : Enhanced Audio Coding 3
Format settings, Endianness : Big
Codec ID : A_EAC3
Duration : 43 min 5 s
Bit rate mode : Constant
Bit rate : 640 kb/s
Channel(s) : 6 channels
Channel positions : Front: L C R, Side: L R, LFE
Sampling rate : 48.0 kHz
Frame rate : 187.500 FPS (256 SPF)
Compression mode : Lossy
Stream size : 197 MiB (7%)
Service kind : Complete Main
Default : Yes
Forced : No
Statistics Tags Issue : no_variable_data 1970-01-01 00:00:00 / no_variable_data 2010-02-22 21:41:29
FromStats_BitRate : 640000
FromStats_Duration : 00:43:05.632000000
FromStats_FrameCount : 80801
FromStats_StreamSize : 206850560

Text
ID : 3
Format : UTF-8
Codec ID : S_TEXT/UTF8
Codec ID/Info : UTF-8 Plain Text
Language : English
Default : No
Forced : No
Statistics Tags Issue : no_variable_data 1970-01-01 00:00:00 / no_variable_data 2010-02-22 21:41:29
FromStats_BitRate : 71
FromStats_Duration : 00:42:35.953000000
FromStats_FrameCount : 722
FromStats_StreamSize : 22959





Dark Matter S03E01


Dark Matter S03E01


Dark Matter S03E01


Dark Matter S03E01


Dark Matter S03E01

All episodes