Featured TV Shows


Dark Matter S03E02

Posted By: Tavaz
1080p (FullHD) / BluRay Remux IMDb
Dark Matter S03E02

Dark Matter S03E02
BluRay Remux | MKV | 1920x1080 | English / English | H264 @ 23973 kbps | TrueHD @ 1921 kbps | 43 min 7 s | 7.97 GiB
Subtitles: English
Genre: Science Fiction, Drama, Thriller

The six-person crew of a derelict spaceship awakens from stasis in the farthest reaches of space. Their memories wiped clean, they have no recollection of who they are or how they got on board. The only clue to their identities is a cargo bay full of weaponry and a destination: a remote mining colony that is about to become a war zone. With no idea whose side they are on, they face a deadly decision. Will these amnesiacs turn their backs on history, or will their pasts catch up with them?

baada572520b4bbfb33f5af8ad97db54.mkv (8.0 GB)



General
Unique ID : 303535530552708495320570146839438809002 (0xE45AD1166075A8FD93F34D0652EFD7AA)
Complete name : ./baada572520b4bbfb33f5af8ad97db54.mkv
Format : Matroska
Format version : Version 4 / Version 2
File size : 7.97 GiB
Duration : 43 min 7 s
Overall bit rate mode : Variable
Overall bit rate : 26.5 Mb/s
Movie name : Dark Matter S03E02
Encoded date : UTC 2018-07-09 14:41:53
Writing application : mkvmerge v22.0.0 ('At The End Of The World') 64-bit
Writing library : libebml v1.3.5 + libmatroska v1.4.8

Video
ID : 1
Format : AVC
Format/Info : Advanced Video Codec
Format profile : High@L4.1
Format settings : CABAC / 4 Ref Frames
Format settings, CABAC : Yes
Format settings, RefFrames : 4 frames
Codec ID : V_MPEG4/ISO/AVC
Duration : 43 min 7 s
Bit rate mode : Variable
Bit rate : 24.0 Mb/s
Maximum bit rate : 39.5 Mb/s
Width : 1 920 pixels
Height : 1 080 pixels
Display aspect ratio : 16:9
Frame rate mode : Constant
Frame rate : 23.976 (24000/1001) FPS
Color space : YUV
Chroma subsampling : 4:2:0
Bit depth : 8 bits
Scan type : Progressive
Bits/(Pixel*Frame) : 0.482
Stream size : 7.22 GiB (91%)
Default : Yes
Forced : No

Audio #1
ID : 2
Format : TrueHD
Codec ID : A_TRUEHD
Duration : 43 min 6 s
Bit rate mode : Variable
Bit rate : 1 922 kb/s
Maximum bit rate : 3 420 kb/s
Channel(s) : 6 channels
Channel positions : Front: L C R, Side: L R, LFE
Sampling rate : 48.0 kHz
Frame rate : 1 200.000 FPS (40 SPF)
Compression mode : Lossless
Stream size : 593 MiB (7%)
Title : TrueHD 5.1
Language : English
Default : Yes
Forced : No

Audio #2
ID : 3
Format : AC-3
Format/Info : Audio Coding 3
Format settings, Endianness : Big
Codec ID : A_AC3
Duration : 43 min 6 s
Bit rate mode : Constant
Bit rate : 448 kb/s
Channel(s) : 6 channels
Channel positions : Front: L C R, Side: L R, LFE
Sampling rate : 48.0 kHz
Frame rate : 31.250 FPS (1536 SPF)
Bit depth : 16 bits
Compression mode : Lossy
Stream size : 138 MiB (2%)
Title : AC-3 5.1
Language : English
Service kind : Complete Main
Default : No
Forced : No

Text
ID : 4
Format : PGS
Codec ID : S_HDMV/PGS
Codec ID/Info : Picture based subtitle format used on BDs/HD-DVDs
Duration : 42 min 38 s
Bit rate : 56.5 kb/s
Count of elements : 1646
Stream size : 17.2 MiB (0%)
Title : English (SDH)
Language : English
Default : No
Forced : No

Menu
00:00:00.000 : en:00:00:00.000
00:02:39.493 : en:00:02:39.493
00:11:59.510 : en:00:11:59.510
00:17:49.819 : en:00:17:49.819
00:24:19.541 : en:00:24:19.541
00:33:12.741 : en:00:33:12.741
00:40:35.433 : en:00:40:35.433





Dark Matter S03E02


Dark Matter S03E02


Dark Matter S03E02


Dark Matter S03E02


Dark Matter S03E02

All episodes