Featured TV Shows


Dark Matter S03E10

Posted By: Tavaz
1080p (FullHD) / WEB-DL IMDb
Dark Matter S03E10

Dark Matter S03E10
WEB-DL | MKV | 1920x1080 | English | H264 @ 8225 kbps | E-AC-3 @ 640 kbps | 43 min 5 s | 2.67 GiB
Genre: Science Fiction, Drama, Thriller

The six-person crew of a derelict spaceship awakens from stasis in the farthest reaches of space. Their memories wiped clean, they have no recollection of who they are or how they got on board. The only clue to their identities is a cargo bay full of weaponry and a destination: a remote mining colony that is about to become a war zone. With no idea whose side they are on, they face a deadly decision. Will these amnesiacs turn their backs on history, or will their pasts catch up with them?

e11f027dec7b40a3a86e8a0762b5493f.mkv (2.7 GB)



General
Unique ID : 205946295456467890270218045990335797181 (0x9AEFD050F8A3EE0489A0B0BC7D61D7BD)
Complete name : ./e11f027dec7b40a3a86e8a0762b5493f.mkv
Format : Matroska
Format version : Version 4 / Version 2
File size : 2.67 GiB
Duration : 43 min 5 s
Overall bit rate mode : Variable
Overall bit rate : 8 867 kb/s
Encoded date : UTC 2017-08-09 07:44:36
Writing application : mkvmerge v8.3.0 ('Over the Horizon') 32bit
Writing library : libebml v1.3.1 + libmatroska v1.4.2

Video
ID : 1
Format : AVC
Format/Info : Advanced Video Codec
Format profile : High@L4
Format settings : CABAC / 4 Ref Frames
Format settings, CABAC : Yes
Format settings, RefFrames : 4 frames
Codec ID : V_MPEG4/ISO/AVC
Duration : 43 min 5 s
Bit rate mode : Variable
Bit rate : 8 225 kb/s
Maximum bit rate : 15.0 Mb/s
Width : 1 920 pixels
Height : 1 080 pixels
Display aspect ratio : 16:9
Frame rate mode : Constant
Frame rate : 23.976 (24000/1001) FPS
Color space : YUV
Chroma subsampling : 4:2:0
Bit depth : 8 bits
Scan type : Progressive
Bits/(Pixel*Frame) : 0.165
Stream size : 2.48 GiB (93%)
Default : Yes
Forced : No
Color range : Limited
Color primaries : BT.709
Transfer characteristics : BT.709
Matrix coefficients : BT.709

Audio
ID : 2
Format : E-AC-3
Format/Info : Enhanced Audio Coding 3
Format settings, Endianness : Big
Codec ID : A_EAC3
Duration : 43 min 5 s
Bit rate mode : Constant
Bit rate : 640 kb/s
Channel(s) : 6 channels
Channel positions : Front: L C R, Side: L R, LFE
Sampling rate : 48.0 kHz
Frame rate : 187.500 FPS (256 SPF)
Compression mode : Lossy
Stream size : 197 MiB (7%)
Service kind : Complete Main
Default : Yes
Forced : No

Text
ID : 3
Format : UTF-8
Codec ID : S_TEXT/UTF8
Codec ID/Info : UTF-8 Plain Text
Duration : 42 min 34 s
Bit rate : 77 b/s
Count of elements : 779
Stream size : 24.1 KiB (0%)
Title : English
Default : No
Forced : No





Dark Matter S03E10


Dark Matter S03E10


Dark Matter S03E10


Dark Matter S03E10


Dark Matter S03E10

All episodes