Featured TV Shows


Dark S03E07

Posted By: Tavaz
1080p (FullHD) / WEBRip IMDb
Dark S03E07

Dark S03E07
WEBRip | MKV | 1920x960 | Deutsch | H264 @ 4823 kbps | E-AC-3 @ 640 kbps | 1 h 8 min | 2.62 GiB
Subtitles: ภาษาไทย, Français, tiếng Việt, Español, Magyar, 日本語, עברית, 한국어, Русский, Ελληνικά, Nederlands, Dansk, Bahasa Indonesia, Bokmål, 中文, Suomi, Polski, Türkçe, English, Română, العربية, Deutsch, Svenska, Italiano, Português, Čeština
Genre: Crime, Drama, Mystery


A missing child causes four families to help each other for answers. What they could not imagine is that this mystery would be connected to innumerable other secrets of the small town.

e17c5653b9f34d03a2bf5b9df7f9aec5.mkv (2.6 GB)



General
Unique ID : 196188724543362757829472206375842707818 (0x939892ED6620054E88DF625D8CBB796A)
Complete name : ./e17c5653b9f34d03a2bf5b9df7f9aec5.mkv
Format : Matroska
Format version : Version 4 / Version 2
File size : 2.62 GiB
Duration : 1 h 8 min
Overall bit rate : 5 467 kb/s
Encoded date : UTC 2020-06-30 08:25:04
Writing application : mkvmerge v10.0.0 ('To Drown In You') 64bit
Writing library : libebml v1.3.4 + libmatroska v1.4.5

Video
ID : 1
Format : AVC
Format/Info : Advanced Video Codec
Format profile : High@L4.1
Format settings : CABAC / 4 Ref Frames
Format settings, CABAC : Yes
Format settings, RefFrames : 4 frames
Codec ID : V_MPEG4/ISO/AVC
Duration : 1 h 8 min
Bit rate : 4 823 kb/s
Width : 1 920 pixels
Height : 960 pixels
Display aspect ratio : 2.000
Frame rate mode : Constant
Frame rate : 24.000 FPS
Color space : YUV
Chroma subsampling : 4:2:0
Bit depth : 8 bits
Scan type : Progressive
Bits/(Pixel*Frame) : 0.109
Stream size : 2.31 GiB (88%)
Writing library : x264 core 157 r2969 d4099dd
Encoding settings : cabac=1 / ref=4 / deblock=1:-3:-3 / analyse=0x3:0x133 / me=umh / subme=10 / psy=1 / psy_rd=1.00:0.00 / mixed_ref=1 / me_range=48 / chroma_me=1 / trellis=2 / 8x8dct=1 / cqm=0 / deadzone=21,11 / fast_pskip=0 / chroma_qp_offset=-2 / threads=24 / lookahead_threads=4 / sliced_threads=0 / nr=0 / decimate=0 / interlaced=0 / bluray_compat=0 / constrained_intra=0 / bframes=9 / b_pyramid=0 / b_adapt=2 / b_bias=0 / direct=3 / weightb=1 / open_gop=0 / weightp=2 / keyint=250 / keyint_min=24 / scenecut=40 / intra_refresh=0 / rc_lookahead=60 / rc=crf / mbtree=0 / crf=17.5 / qcomp=0.60 / qpmin=10 / qpmax=51 / qpstep=4 / vbv_maxrate=62500 / vbv_bufsize=78125 / crf_max=0.0 / nal_hrd=none / filler=0 / ip_ratio=1.40 / pb_ratio=1.30 / aq=3:0.75
Default : Yes
Forced : No

Audio
ID : 2
Format : E-AC-3
Format/Info : Enhanced Audio Coding 3
Format settings, Endianness : Big
Codec ID : A_EAC3
Duration : 1 h 8 min
Bit rate mode : Constant
Bit rate : 640 kb/s
Channel(s) : 6 channels
Channel positions : Front: L C R, Side: L R, LFE
Sampling rate : 48.0 kHz
Frame rate : 187.500 FPS (256 SPF)
Compression mode : Lossy
Stream size : 315 MiB (12%)
Language : German
Service kind : Complete Main
Default : Yes
Forced : No

Text #1
ID : 3
Format : UTF-8
Codec ID : S_TEXT/UTF8
Codec ID/Info : UTF-8 Plain Text
Duration : 31 min 14 s
Bit rate : 0 b/s
Count of elements : 4
Stream size : 87.0 Bytes (0%)
Title : Forced
Language : German
Default : No
Forced : Yes

Text #2
ID : 4
Format : UTF-8
Codec ID : S_TEXT/UTF8
Codec ID/Info : UTF-8 Plain Text
Duration : 1 h 4 min
Bit rate : 32 b/s
Count of elements : 585
Stream size : 15.3 KiB (0%)
Title : SDH
Language : English
Default : No
Forced : No

Text #3
ID : 5
Format : UTF-8
Codec ID : S_TEXT/UTF8
Codec ID/Info : UTF-8 Plain Text
Duration : 1 h 8 min
Bit rate : 22 b/s
Count of elements : 412
Stream size : 11.4 KiB (0%)
Language : English
Default : No
Forced : No

Text #4
ID : 6
Format : UTF-8
Codec ID : S_TEXT/UTF8
Codec ID/Info : UTF-8 Plain Text
Duration : 1 h 8 min
Bit rate : 35 b/s
Count of elements : 410
Stream size : 17.8 KiB (0%)
Language : Arabic
Default : No
Forced : No

Text #5
ID : 7
Format : UTF-8
Codec ID : S_TEXT/UTF8
Codec ID/Info : UTF-8 Plain Text
Duration : 1 h 8 min
Bit rate : 21 b/s
Count of elements : 411
Stream size : 10.9 KiB (0%)
Language : Czech
Default : No
Forced : No

Text #6
ID : 8
Format : UTF-8
Codec ID : S_TEXT/UTF8
Codec ID/Info : UTF-8 Plain Text
Duration : 1 h 4 min
Bit rate : 24 b/s
Count of elements : 376
Stream size : 11.8 KiB (0%)
Language : Danish
Default : No
Forced : No

Text #7
ID : 9
Format : UTF-8
Codec ID : S_TEXT/UTF8
Codec ID/Info : UTF-8 Plain Text
Duration : 1 h 4 min
Bit rate : 28 b/s
Count of elements : 436
Stream size : 13.7 KiB (0%)
Language : German
Default : No
Forced : No

Text #8
ID : 10
Format : UTF-8
Codec ID : S_TEXT/UTF8
Codec ID/Info : UTF-8 Plain Text
Duration : 1 h 4 min
Bit rate : 34 b/s
Count of elements : 563
Stream size : 16.4 KiB (0%)
Title : SDH
Language : German
Default : No
Forced : No

Text #9
ID : 11
Format : UTF-8
Codec ID : S_TEXT/UTF8
Codec ID/Info : UTF-8 Plain Text
Duration : 1 h 4 min
Bit rate : 42 b/s
Count of elements : 414
Stream size : 20.3 KiB (0%)
Language : Greek
Default : No
Forced : No

Text #10
ID : 12
Format : UTF-8
Codec ID : S_TEXT/UTF8
Codec ID/Info : UTF-8 Plain Text
Duration : 1 h 8 min
Bit rate : 23 b/s
Count of elements : 416
Stream size : 11.7 KiB (0%)
Language : Spanish
Default : No
Forced : No

Text #11
ID : 13
Format : UTF-8
Codec ID : S_TEXT/UTF8
Codec ID/Info : UTF-8 Plain Text
Duration : 1 h 4 min
Bit rate : 25 b/s
Count of elements : 410
Stream size : 12.0 KiB (0%)
Title : European
Language : Spanish
Default : No
Forced : No

Text #12
ID : 14
Format : UTF-8
Codec ID : S_TEXT/UTF8
Codec ID/Info : UTF-8 Plain Text
Duration : 1 h 8 min
Bit rate : 22 b/s
Count of elements : 382
Stream size : 11.2 KiB (0%)
Language : Finnish
Default : No
Forced : No

Text #13
ID : 15
Format : UTF-8
Codec ID : S_TEXT/UTF8
Codec ID/Info : UTF-8 Plain Text
Duration : 1 h 4 min
Bit rate : 25 b/s
Count of elements : 411
Stream size : 12.1 KiB (0%)
Language : French
Default : No
Forced : No

Text #14
ID : 16
Format : UTF-8
Codec ID : S_TEXT/UTF8
Codec ID/Info : UTF-8 Plain Text
Duration : 1 h 4 min
Bit rate : 37 b/s
Count of elements : 443
Stream size : 17.9 KiB (0%)
Language : Hebrew
Default : No
Forced : No

Text #15
ID : 17
Format : UTF-8
Codec ID : S_TEXT/UTF8
Codec ID/Info : UTF-8 Plain Text
Duration : 1 h 8 min
Bit rate : 23 b/s
Count of elements : 412
Stream size : 11.6 KiB (0%)
Language : Hungarian
Default : No
Forced : No

Text #16
ID : 18
Format : UTF-8
Codec ID : S_TEXT/UTF8
Codec ID/Info : UTF-8 Plain Text
Duration : 1 h 8 min
Bit rate : 23 b/s
Count of elements : 413
Stream size : 11.5 KiB (0%)
Language : Indonesian
Default : No
Forced : No

Text #17
ID : 19
Format : UTF-8
Codec ID : S_TEXT/UTF8
Codec ID/Info : UTF-8 Plain Text
Duration : 1 h 8 min
Bit rate : 23 b/s
Count of elements : 416
Stream size : 11.5 KiB (0%)
Language : Italian
Default : No
Forced : No

Text #18
ID : 20
Format : UTF-8
Codec ID : S_TEXT/UTF8
Codec ID/Info : UTF-8 Plain Text
Duration : 1 h 8 min
Bit rate : 24 b/s
Count of elements : 375
Stream size : 12.4 KiB (0%)
Language : Japanese
Default : No
Forced : No

Text #19
ID : 21
Format : UTF-8
Codec ID : S_TEXT/UTF8
Codec ID/Info : UTF-8 Plain Text
Duration : 1 h 4 min
Bit rate : 29 b/s
Count of elements : 438
Stream size : 14.1 KiB (0%)
Language : Korean
Default : No
Forced : No

Text #20
ID : 22
Format : UTF-8
Codec ID : S_TEXT/UTF8
Codec ID/Info : UTF-8 Plain Text
Duration : 1 h 4 min
Bit rate : 24 b/s
Count of elements : 384
Stream size : 11.6 KiB (0%)
Language : Norwegian Bokmal
Default : No
Forced : No

Text #21
ID : 23
Format : UTF-8
Codec ID : S_TEXT/UTF8
Codec ID/Info : UTF-8 Plain Text
Duration : 1 h 4 min
Bit rate : 24 b/s
Count of elements : 400
Stream size : 11.5 KiB (0%)
Language : Dutch
Default : No
Forced : No

Text #22
ID : 24
Format : UTF-8
Codec ID : S_TEXT/UTF8
Codec ID/Info : UTF-8 Plain Text
Duration : 1 h 8 min
Bit rate : 22 b/s
Count of elements : 405
Stream size : 11.2 KiB (0%)
Language : Polish
Default : No
Forced : No

Text #23
ID : 25
Format : UTF-8
Codec ID : S_TEXT/UTF8
Codec ID/Info : UTF-8 Plain Text
Duration : 1 h 4 min
Bit rate : 24 b/s
Count of elements : 413
Stream size : 11.7 KiB (0%)
Language : Portuguese
Default : No
Forced : No

Text #24
ID : 26
Format : UTF-8
Codec ID : S_TEXT/UTF8
Codec ID/Info : UTF-8 Plain Text
Duration : 1 h 4 min
Bit rate : 24 b/s
Count of elements : 411
Stream size : 11.5 KiB (0%)
Title : Brazilian
Language : Portuguese
Default : No
Forced : No

Text #25
ID : 27
Format : UTF-8
Codec ID : S_TEXT/UTF8
Codec ID/Info : UTF-8 Plain Text
Duration : 1 h 8 min
Bit rate : 26 b/s
Count of elements : 409
Stream size : 13.3 KiB (0%)
Language : Romanian
Default : No
Forced : No

Text #26
ID : 28
Format : UTF-8
Codec ID : S_TEXT/UTF8
Codec ID/Info : UTF-8 Plain Text
Duration : 1 h 4 min
Bit rate : 37 b/s
Count of elements : 413
Stream size : 17.9 KiB (0%)
Language : Russian
Default : No
Forced : No

Text #27
ID : 29
Format : UTF-8
Codec ID : S_TEXT/UTF8
Codec ID/Info : UTF-8 Plain Text
Duration : 1 h 4 min
Bit rate : 24 b/s
Count of elements : 387
Stream size : 11.4 KiB (0%)
Language : Swedish
Default : No
Forced : No

Text #28
ID : 30
Format : UTF-8
Codec ID : S_TEXT/UTF8
Codec ID/Info : UTF-8 Plain Text
Duration : 1 h 4 min
Bit rate : 59 b/s
Count of elements : 439
Stream size : 28.3 KiB (0%)
Language : Thai
Default : No
Forced : No

Text #29
ID : 31
Format : UTF-8
Codec ID : S_TEXT/UTF8
Codec ID/Info : UTF-8 Plain Text
Duration : 1 h 8 min
Bit rate : 25 b/s
Count of elements : 419
Stream size : 12.6 KiB (0%)
Language : Turkish
Default : No
Forced : No

Text #30
ID : 32
Format : UTF-8
Codec ID : S_TEXT/UTF8
Codec ID/Info : UTF-8 Plain Text
Duration : 1 h 4 min
Bit rate : 34 b/s
Count of elements : 435
Stream size : 16.4 KiB (0%)
Language : Vietnamese
Default : No
Forced : No

Text #31
ID : 33
Format : UTF-8
Codec ID : S_TEXT/UTF8
Codec ID/Info : UTF-8 Plain Text
Duration : 1 h 8 min
Bit rate : 22 b/s
Count of elements : 431
Stream size : 11.3 KiB (0%)
Title : Simplified
Language : Chinese
Default : No
Forced : No

Text #32
ID : 34
Format : UTF-8
Codec ID : S_TEXT/UTF8
Codec ID/Info : UTF-8 Plain Text
Duration : 1 h 4 min
Bit rate : 24 b/s
Count of elements : 440
Stream size : 11.7 KiB (0%)
Title : Traditional
Language : Chinese
Default : No
Forced : No

Menu
00:03:45.770 : en:Credit start
00:05:09.210 : en:Credit end





Dark S03E07


Dark S03E07


Dark S03E07


Dark S03E07


Dark S03E07

All episodes