Featured TV Shows


Darling In The Franxx S01E21

Posted By: Tavaz
SD / WEBRip IMDb
Darling In The Franxx S01E21

Darling In The Franxx S01E21
WEBRip | MKV | 848x480 | Japanese | H264 @ 815 kbps | AAC @ 96 kbps | 24 min 0 s | 157 MiB
Subtitles: Portuguese, German, English, French, Spanish, Russian, Arabic, Italian



3a4e5f43bf134bc48ef2f1ae30c1bfb3.mkv (157.3 MB)



General
Unique ID : 186511588950637822926168956061633271949 (0x8C50D34E4D0B1A3F8F89A5C472C4D88D)
Complete name : ./3a4e5f43bf134bc48ef2f1ae30c1bfb3.mkv
Format : Matroska
Format version : Version 4 / Version 2
File size : 157 MiB
Duration : 24 min 0 s
Overall bit rate : 916 kb/s
Movie name : DARLING in the FRANXX Episode 21 - For You, My Love
Encoded date : UTC 2018-10-28 10:48:07
Writing application : mkvmerge v12.0.0 ('Trust / Lust') 64bit
Writing library : libebml v1.3.4 + libmatroska v1.4.5

Video
ID : 1
Format : AVC
Format/Info : Advanced Video Codec
Format profile : Main@L3.1
Format settings : CABAC / 6 Ref Frames
Format settings, CABAC : Yes
Format settings, RefFrames : 6 frames
Codec ID : V_MPEG4/ISO/AVC
Duration : 24 min 0 s
Bit rate : 816 kb/s
Width : 848 pixels
Height : 480 pixels
Display aspect ratio : 16:9
Frame rate mode : Constant
Frame rate : 23.976 (24000/1001) FPS
Color space : YUV
Chroma subsampling : 4:2:0
Bit depth : 8 bits
Scan type : Progressive
Bits/(Pixel*Frame) : 0.084
Stream size : 140 MiB (89%)
Writing library : x264 core 142
Encoding settings : cabac=1 / ref=6 / deblock=1:1:1 / analyse=0x1:0x111 / me=umh / subme=8 / psy=1 / psy_rd=0.40:0.00 / mixed_ref=1 / me_range=16 / chroma_me=1 / trellis=1 / 8x8dct=0 / cqm=0 / deadzone=21,11 / fast_pskip=1 / chroma_qp_offset=-2 / threads=6 / lookahead_threads=1 / sliced_threads=0 / nr=0 / decimate=1 / interlaced=0 / bluray_compat=0 / constrained_intra=0 / bframes=5 / b_pyramid=2 / b_adapt=2 / b_bias=0 / direct=3 / weightb=1 / open_gop=0 / weightp=2 / keyint=48 / keyint_min=24 / scenecut=40 / intra_refresh=0 / rc_lookahead=48 / rc=crf / mbtree=1 / crf=17.0 / qcomp=0.60 / qpmin=0 / qpmax=69 / qpstep=4 / vbv_maxrate=2000 / vbv_bufsize=3000 / crf_max=0.0 / nal_hrd=none / filler=0 / ip_ratio=1.40 / aq=1:0.60
Language : Japanese
Default : Yes
Forced : No

Audio
ID : 2
Format : AAC
Format/Info : Advanced Audio Codec
Format profile : LC
Codec ID : A_AAC-2
Duration : 24 min 0 s
Bit rate : 96.0 kb/s
Channel(s) : 2 channels
Channel positions : Front: L R
Sampling rate : 44.1 kHz
Frame rate : 43.066 FPS (1024 SPF)
Compression mode : Lossy
Delay relative to video : -83 ms
Stream size : 16.5 MiB (10%)
Language : Japanese
Default : Yes
Forced : No

Text #1
ID : 3
Format : ASS
Codec ID : S_TEXT/ASS
Codec ID/Info : Advanced Sub Station Alpha
Duration : 23 min 55 s
Bit rate : 111 b/s
Count of elements : 325
Compression mode : Lossless
Stream size : 19.5 KiB (0%)
Title : [English (US)]
Language : English
Default : Yes
Forced : No

Text #2
ID : 4
Format : ASS
Codec ID : S_TEXT/ASS
Codec ID/Info : Advanced Sub Station Alpha
Duration : 23 min 55 s
Bit rate : 113 b/s
Count of elements : 323
Compression mode : Lossless
Stream size : 19.9 KiB (0%)
Title : [Espanol]
Language : Spanish
Default : No
Forced : No

Text #3
ID : 5
Format : ASS
Codec ID : S_TEXT/ASS
Codec ID/Info : Advanced Sub Station Alpha
Duration : 23 min 55 s
Bit rate : 114 b/s
Count of elements : 323
Compression mode : Lossless
Stream size : 20.0 KiB (0%)
Title : [Espanol (Espana)]
Language : Spanish
Default : No
Forced : No

Text #4
ID : 6
Format : ASS
Codec ID : S_TEXT/ASS
Codec ID/Info : Advanced Sub Station Alpha
Duration : 23 min 55 s
Bit rate : 120 b/s
Count of elements : 312
Compression mode : Lossless
Stream size : 21.1 KiB (0%)
Title : [Francais (France)]
Language : French
Default : No
Forced : No

Text #5
ID : 7
Format : ASS
Codec ID : S_TEXT/ASS
Codec ID/Info : Advanced Sub Station Alpha
Duration : 23 min 55 s
Bit rate : 113 b/s
Count of elements : 323
Compression mode : Lossless
Stream size : 19.8 KiB (0%)
Title : [Portugues (Brasil)]
Language : Portuguese
Default : No
Forced : No

Text #6
ID : 8
Format : ASS
Codec ID : S_TEXT/ASS
Codec ID/Info : Advanced Sub Station Alpha
Duration : 23 min 55 s
Bit rate : 134 b/s
Count of elements : 324
Compression mode : Lossless
Stream size : 23.5 KiB (0%)
Title : [Arabic]
Language : Arabic
Default : No
Forced : No

Text #7
ID : 9
Format : ASS
Codec ID : S_TEXT/ASS
Codec ID/Info : Advanced Sub Station Alpha
Duration : 23 min 55 s
Bit rate : 139 b/s
Count of elements : 354
Compression mode : Lossless
Stream size : 24.4 KiB (0%)
Title : [Italiano]
Language : Italian
Default : No
Forced : No

Text #8
ID : 10
Format : ASS
Codec ID : S_TEXT/ASS
Codec ID/Info : Advanced Sub Station Alpha
Duration : 23 min 55 s
Bit rate : 126 b/s
Count of elements : 338
Compression mode : Lossless
Stream size : 22.1 KiB (0%)
Title : [Deutsch]
Language : German
Default : No
Forced : No

Text #9
ID : 11
Format : ASS
Codec ID : S_TEXT/ASS
Codec ID/Info : Advanced Sub Station Alpha
Duration : 23 min 54 s
Bit rate : 176 b/s
Count of elements : 339
Compression mode : Lossless
Stream size : 31.0 KiB (0%)
Title : [Russian]
Language : Russian
Default : No
Forced : No





Darling In The Franxx S01E21


Darling In The Franxx S01E21


Darling In The Franxx S01E21


Darling In The Franxx S01E21

All episodes