Index
# A B C D E F G H I J K L M N O P Q R S T U V W Y Z
Tags
Language
Tags

Featured TV Shows


Das Boot S01E03

Posted By: Tavaz
Das Boot S01E03

Das Boot S01E03
MKV | 1920x1080 | German | H265 @ 2492 kbps | AC-3 @ 384 kbps | 1 h 0 min | 1.23 GiB
Subtitles: Dutch
Genre: Drama


An inexperienced U-boat crew has to survive a secret mission and a young German woman is torn between loyalty for her home country and the French resistance in the WWII drama.

Das Boot - S01E04 - Zweifel.mkv (1.2 GB)
Das Boot - S01E03 - Verluste.mkv (1.2 GB)
Das Boot - S01E07 - Verdammt.mkv (1.2 GB)
Das Boot - S01E01 - Neue Wege.mkv (1.2 GB)
Das Boot - S01E06 - Gegen die Zeit.mkv (1.2 GB)
Das Boot - S01E08 - Abrechnung.mkv (1.2 GB)
Das Boot - S01E02 - Geheime Missionen.mkv (1.2 GB)
Das Boot - S01E05 - Loyalität.mkv (1.1 GB)



General
Unique ID : 0 (0x0)
Complete name : ./Season 1/Das Boot - S01E06 - Gegen die Zeit.mkv
Format : Matroska
Format version : Version 4 / Version 2
File size : 1.23 GiB
Duration : 1 h 0 min
Overall bit rate : 2 935 kb/s
Writing application : no_variable_data
Writing library : no_variable_data

Video
ID : 1
Format : HEVC
Format/Info : High Efficiency Video Coding
Format profile : Main@L4@High
Codec ID : V_MPEGH/ISO/HEVC
Duration : 1 h 0 min
Bit rate : 2 492 kb/s
Width : 1 920 pixels
Height : 1 080 pixels
Display aspect ratio : 16:9
Frame rate mode : Constant
Frame rate : 25.000 FPS
Color space : YUV
Chroma subsampling : 4:2:0
Bit depth : 8 bits
Bits/(Pixel*Frame) : 0.048
Stream size : 1.05 GiB (85%)
Default : Yes
Forced : No

Audio
ID : 2
Format : AC-3
Format/Info : Audio Coding 3
Format settings, Endianness : Big
Codec ID : A_AC3
Duration : 1 h 0 min
Bit rate mode : Constant
Bit rate : 384 kb/s
Channel(s) : 6 channels
Channel positions : Front: L C R, Side: L R, LFE
Sampling rate : 48.0 kHz
Frame rate : 31.250 FPS (1536 SPF)
Bit depth : 16 bits
Compression mode : Lossy
Stream size : 165 MiB (13%)
Language : German
Service kind : Complete Main
Default : Yes
Forced : No

Text
ID : 3
Format : UTF-8
Codec ID : S_TEXT/UTF8
Codec ID/Info : UTF-8 Plain Text
Language : Dutch
Default : Yes
Forced : No





Das Boot S01E03


Das Boot S01E03


Das Boot S01E03


Das Boot S01E03


Das Boot S01E03

All episodes