Index
# A B C D E F G H I J K L M N O P Q R S T U V W Y Z
Tags
Language
Tags

Featured TV Shows


Das Boot S01E01

Posted By: Tavaz
1080p (FullHD) / BDRip IMDb
Das Boot S01E01

Das Boot S01E01
BDRip | MKV | 1920x960 | English | H264 @ 9753 kbps | AC-3 @ 640 kbps | 1 h 0 min | 4.37 GiB
Subtitles: Deutsch, English
Genre: Drama


An inexperienced U-boat crew has to survive a secret mission and a young German woman is torn between loyalty for her home country and the French resistance in the WWII drama.

fbf3a3e17632ebca61f52c5ccc1a91f0.mkv (4.4 GB)



General
Unique ID : 232655780714784044151537648375599840207 (0xAF07DF9C7919F2D3BA09FAC0792DBBCF)
Complete name : ./fbf3a3e17632ebca61f52c5ccc1a91f0.mkv
Format : Matroska
Format version : Version 4 / Version 2
File size : 4.37 GiB
Duration : 1 h 0 min
Overall bit rate : 10.4 Mb/s
Encoded date : UTC 2020-02-15 14:59:47
Writing application : mkvmerge v8.3.0 ('Over the Horizon') 64bit
Writing library : libebml v1.3.1 + libmatroska v1.4.2

Video
ID : 1
Format : AVC
Format/Info : Advanced Video Codec
Format profile : High@L4.1
Format settings : CABAC / 4 Ref Frames
Format settings, CABAC : Yes
Format settings, RefFrames : 4 frames
Codec ID : V_MPEG4/ISO/AVC
Duration : 1 h 0 min
Bit rate : 9 753 kb/s
Width : 1 920 pixels
Height : 960 pixels
Display aspect ratio : 2.000
Frame rate mode : Constant
Frame rate : 25.000 FPS
Color space : YUV
Chroma subsampling : 4:2:0
Bit depth : 8 bits
Scan type : Progressive
Bits/(Pixel*Frame) : 0.212
Stream size : 4.10 GiB (94%)
Writing library : x264 core 157 r2969 d4099dd
Encoding settings : cabac=1 / ref=4 / deblock=1:-1:-1 / analyse=0x3:0x133 / me=umh / subme=7 / psy=1 / psy_rd=1.00:0.15 / mixed_ref=1 / me_range=16 / chroma_me=1 / trellis=1 / 8x8dct=1 / cqm=0 / deadzone=21,11 / fast_pskip=0 / chroma_qp_offset=-3 / threads=18 / lookahead_threads=3 / sliced_threads=0 / nr=0 / decimate=1 / interlaced=0 / bluray_compat=0 / constrained_intra=0 / bframes=3 / b_pyramid=2 / b_adapt=1 / b_bias=0 / direct=3 / weightb=1 / open_gop=0 / weightp=2 / keyint=250 / keyint_min=25 / scenecut=40 / intra_refresh=0 / rc_lookahead=50 / rc=2pass / mbtree=1 / bitrate=9753 / ratetol=1.0 / qcomp=0.60 / qpmin=0 / qpmax=69 / qpstep=4 / cplxblur=20.0 / qblur=0.5 / ip_ratio=1.40 / aq=1:1.00
Language : English
Default : Yes
Forced : No

Audio
ID : 2
Format : AC-3
Format/Info : Audio Coding 3
Format settings, Endianness : Big
Codec ID : A_AC3
Duration : 1 h 0 min
Bit rate mode : Constant
Bit rate : 640 kb/s
Channel(s) : 6 channels
Channel positions : Front: L C R, Side: L R, LFE
Sampling rate : 48.0 kHz
Frame rate : 31.250 FPS (1536 SPF)
Bit depth : 16 bits
Compression mode : Lossy
Stream size : 276 MiB (6%)
Language : English
Service kind : Complete Main
Default : Yes
Forced : No

Text #1
ID : 3
Format : UTF-8
Codec ID : S_TEXT/UTF8
Codec ID/Info : UTF-8 Plain Text
Duration : 58 min 6 s
Bit rate : 40 b/s
Count of elements : 605
Stream size : 17.1 KiB (0%)
Title : English
Language : English
Default : Yes
Forced : Yes

Text #2
ID : 4
Format : UTF-8
Codec ID : S_TEXT/UTF8
Codec ID/Info : UTF-8 Plain Text
Duration : 46 min 33 s
Bit rate : 9 b/s
Count of elements : 110
Stream size : 3.08 KiB (0%)
Title : German forced
Language : German
Default : No
Forced : No

Text #3
ID : 5
Format : UTF-8
Codec ID : S_TEXT/UTF8
Codec ID/Info : UTF-8 Plain Text
Duration : 58 min 7 s
Bit rate : 42 b/s
Count of elements : 603
Stream size : 18.2 KiB (0%)
Title : German
Language : German
Default : No
Forced : No

Menu
00:00:00.000 : en:00:00:00.000
00:10:32.600 : en:00:10:32.600
00:21:43.280 : en:00:21:43.280
00:36:20.680 : en:00:36:20.680
00:45:04.560 : en:00:45:04.560
00:52:41.600 : en:00:52:41.600
00:59:42.000 : en:00:59:42.000





Das Boot S01E01


Das Boot S01E01


Das Boot S01E01


Das Boot S01E01


Das Boot S01E01

All episodes