Index
# A B C D E F G H I J K L M N O P Q R S T U V W Y Z
Tags
Language
Tags

Featured TV Shows


Das Boot S01E04

Posted By: Tavaz
720p (HD) / BDRip IMDb
Das Boot S01E04

Das Boot S01E04
BDRip | MKV | 1280x640 | English | H264 @ 4874 kbps | AC-3 @ 640 kbps | 56 min 41 s | 2.18 GiB
Subtitles: Deutsch, English
Genre: Drama


An inexperienced U-boat crew has to survive a secret mission and a young German woman is torn between loyalty for her home country and the French resistance in the WWII drama.

bb7f009bc61b4f763f2740a7422dfc60.mkv (2.2 GB)



General
Unique ID : 207910305585744997063609236023810879902 (0x9C6A117DE807B7D09C72781E165A719E)
Complete name : ./bb7f009bc61b4f763f2740a7422dfc60.mkv
Format : Matroska
Format version : Version 4 / Version 2
File size : 2.18 GiB
Duration : 56 min 41 s
Overall bit rate : 5 516 kb/s
Encoded date : UTC 2020-02-15 14:53:58
Writing application : mkvmerge v8.3.0 ('Over the Horizon') 64bit
Writing library : libebml v1.3.1 + libmatroska v1.4.2

Video
ID : 1
Format : AVC
Format/Info : Advanced Video Codec
Format profile : High@L4.1
Format settings : CABAC / 5 Ref Frames
Format settings, CABAC : Yes
Format settings, RefFrames : 5 frames
Codec ID : V_MPEG4/ISO/AVC
Duration : 56 min 41 s
Bit rate : 4 874 kb/s
Width : 1 280 pixels
Height : 640 pixels
Display aspect ratio : 2.000
Frame rate mode : Constant
Frame rate : 25.000 FPS
Color space : YUV
Chroma subsampling : 4:2:0
Bit depth : 8 bits
Scan type : Progressive
Bits/(Pixel*Frame) : 0.238
Stream size : 1.93 GiB (88%)
Writing library : x264 core 157 r2969 d4099dd
Encoding settings : cabac=1 / ref=5 / deblock=1:-1:-1 / analyse=0x3:0x133 / me=umh / subme=7 / psy=1 / psy_rd=1.00:0.15 / mixed_ref=1 / me_range=16 / chroma_me=1 / trellis=2 / 8x8dct=1 / cqm=0 / deadzone=21,11 / fast_pskip=0 / chroma_qp_offset=-3 / threads=18 / lookahead_threads=3 / sliced_threads=0 / nr=0 / decimate=1 / interlaced=0 / bluray_compat=0 / constrained_intra=0 / bframes=3 / b_pyramid=2 / b_adapt=1 / b_bias=0 / direct=3 / weightb=1 / open_gop=0 / weightp=2 / keyint=250 / keyint_min=25 / scenecut=40 / intra_refresh=0 / rc_lookahead=50 / rc=2pass / mbtree=1 / bitrate=4874 / ratetol=1.0 / qcomp=0.60 / qpmin=0 / qpmax=69 / qpstep=4 / cplxblur=20.0 / qblur=0.5 / ip_ratio=1.40 / aq=1:1.00
Language : English
Default : Yes
Forced : No

Audio
ID : 2
Format : AC-3
Format/Info : Audio Coding 3
Format settings, Endianness : Big
Codec ID : A_AC3
Duration : 56 min 40 s
Bit rate mode : Constant
Bit rate : 640 kb/s
Channel(s) : 6 channels
Channel positions : Front: L C R, Side: L R, LFE
Sampling rate : 48.0 kHz
Frame rate : 31.250 FPS (1536 SPF)
Bit depth : 16 bits
Compression mode : Lossy
Stream size : 259 MiB (12%)
Language : English
Service kind : Complete Main
Default : Yes
Forced : No

Text #1
ID : 3
Format : UTF-8
Codec ID : S_TEXT/UTF8
Codec ID/Info : UTF-8 Plain Text
Duration : 50 min 31 s
Bit rate : 37 b/s
Count of elements : 416
Stream size : 14.0 KiB (0%)
Title : English
Language : English
Default : Yes
Forced : Yes

Text #2
ID : 4
Format : UTF-8
Codec ID : S_TEXT/UTF8
Codec ID/Info : UTF-8 Plain Text
Duration : 55 min 34 s
Bit rate : 22 b/s
Count of elements : 262
Stream size : 9.21 KiB (0%)
Title : German forced
Language : German
Default : No
Forced : No

Text #3
ID : 5
Format : UTF-8
Codec ID : S_TEXT/UTF8
Codec ID/Info : UTF-8 Plain Text
Duration : 55 min 42 s
Bit rate : 54 b/s
Count of elements : 601
Stream size : 22.1 KiB (0%)
Title : German
Language : German
Default : No
Forced : No

Menu
00:00:00.000 : en:00:00:00.000
00:04:16.840 : en:00:04:16.840
00:16:53.960 : en:00:16:53.960
00:29:16.880 : en:00:29:16.880
00:39:30.960 : en:00:39:30.960
00:46:38.360 : en:00:46:38.360
00:56:09.000 : en:00:56:09.000





Das Boot S01E04


Das Boot S01E04


Das Boot S01E04


Das Boot S01E04


Das Boot S01E04

All episodes