Index
# A B C D E F G H I J K L M N O P Q R S T U V W Y Z
Tags
Language
Tags

Featured TV Shows


Das Boot S01E06

Posted By: Tavaz
720p (HD) / BDRip IMDb
Das Boot S01E06

Das Boot S01E06
BDRip | MKV | 1280x720 | Deutsch | H264 @ 10239 kbps | AC-3 @ 448 kbps | 1 h 0 min | 4.48 GiB
Subtitles: Nederlands, English
Genre: Drama


An inexperienced U-boat crew has to survive a secret mission and a young German woman is torn between loyalty for her home country and the French resistance in the WWII drama.

b8b825f1fba2211e03eeaee831b498e1.mkv (4.5 GB)



General
Unique ID : 45679937941334959753124841941388844460 (0x225DA2D31E11BDF1FA8BDF64FE115DAC)
Complete name : ./b8b825f1fba2211e03eeaee831b498e1.mkv
Format : Matroska
Format version : Version 4 / Version 2
File size : 4.48 GiB
Duration : 1 h 0 min
Overall bit rate : 10.7 Mb/s
Encoded date : UTC 2019-06-30 21:15:46
Writing application : mkvmerge v35.0.0 ('All The Love In The World') 64-bit
Writing library : libebml v1.3.9 + libmatroska v1.5.2

Video
ID : 1
Format : AVC
Format/Info : Advanced Video Codec
Format profile : High@L4.1
Format settings : CABAC / 9 Ref Frames
Format settings, CABAC : Yes
Format settings, RefFrames : 9 frames
Codec ID : V_MPEG4/ISO/AVC
Duration : 1 h 0 min
Bit rate : 10.2 Mb/s
Width : 1 280 pixels
Height : 720 pixels
Display aspect ratio : 16:9
Frame rate mode : Constant
Frame rate : 25.000 FPS
Color space : YUV
Chroma subsampling : 4:2:0
Bit depth : 8 bits
Scan type : Progressive
Bits/(Pixel*Frame) : 0.444
Stream size : 4.29 GiB (96%)
Writing library : x264 core 152 r2851kMod ba24899
Encoding settings : cabac=1 / ref=9 / deblock=1:-3:-3 / analyse=0x3:0x133 / me=umh / subme=11 / psy=1 / fade_compensate=0.00 / psy_rd=1.00:0.00 / mixed_ref=1 / me_range=32 / chroma_me=1 / trellis=2 / 8x8dct=1 / cqm=0 / deadzone=21,11 / fast_pskip=1 / chroma_qp_offset=-2 / threads=22 / lookahead_threads=5 / sliced_threads=0 / nr=0 / decimate=1 / interlaced=0 / bluray_compat=0 / constrained_intra=0 / bframes=10 / b_pyramid=2 / b_adapt=2 / b_bias=0 / direct=3 / weightb=1 / open_gop=0 / weightp=2 / keyint=250 / keyint_min=25 / scenecut=40 / intra_refresh=0 / rc=crf / mbtree=0 / crf=14.3000 / qcomp=0.65 / qpmin=0 / qpmax=69 / qpstep=4 / ip_ratio=1.25 / pb_ratio=1.20 / aq=1:0.60
Language : German
Default : Yes
Forced : No

Audio
ID : 2
Format : AC-3
Format/Info : Audio Coding 3
Format settings, Endianness : Big
Codec ID : A_AC3
Duration : 1 h 0 min
Bit rate mode : Constant
Bit rate : 448 kb/s
Channel(s) : 6 channels
Channel positions : Front: L C R, Side: L R, LFE
Sampling rate : 48.0 kHz
Frame rate : 31.250 FPS (1536 SPF)
Bit depth : 16 bits
Compression mode : Lossy
Stream size : 192 MiB (4%)
Language : German
Service kind : Complete Main
Default : Yes
Forced : No

Text #1
ID : 3
Format : ASS
Codec ID : S_TEXT/ASS
Codec ID/Info : Advanced Sub Station Alpha
Duration : 59 min 57 s
Bit rate : 42 b/s
Count of elements : 373
Compression mode : Lossless
Stream size : 18.9 KiB (0%)
Language : English
Default : No
Forced : No

Text #2
ID : 4
Format : UTF-8
Codec ID : S_TEXT/UTF8
Codec ID/Info : UTF-8 Plain Text
Duration : 59 min 57 s
Bit rate : 24 b/s
Count of elements : 373
Stream size : 10.9 KiB (0%)
Language : English
Default : No
Forced : No

Text #3
ID : 5
Format : UTF-8
Codec ID : S_TEXT/UTF8
Codec ID/Info : UTF-8 Plain Text
Duration : 58 min 14 s
Bit rate : 28 b/s
Count of elements : 363
Stream size : 12.2 KiB (0%)
Language : Dutch
Default : No
Forced : No

Menu
00:00:00.000 : en:Chapter 01
00:08:39.760 : en:Chapter 02
00:21:56.920 : en:Chapter 03
00:46:03.760 : en:Chapter 04
00:59:31.840 : en:Chapter 05





Das Boot S01E06


Das Boot S01E06


Das Boot S01E06


Das Boot S01E06


Das Boot S01E06

All episodes