Index
# A B C D E F G H I J K L M N O P Q R S T U V W Y Z
Tags
Language
Tags

Featured TV Shows


Das Boot S02E05

Posted By: Tavaz
720p (HD) / BDRip IMDb
Das Boot S02E05

Das Boot S02E05
BDRip | MKV | 1280x640 | Deutsch | H264 @ 2004 kbps | AC-3 @ 640 kbps | 54 min 50 s | 1.02 GiB
Subtitles: Deutsch, English
Genre: Drama


An inexperienced U-boat crew has to survive a secret mission and a young German woman is torn between loyalty for her home country and the French resistance in the WWII drama.

d2d9cb0e62e94894b921b13ae6b63368.mkv (1.0 GB)



General
Unique ID : 175809732964482697065155574044892969969 (0x8443B9117D0904FB84E4AE396621BBF1)
Complete name : ./d2d9cb0e62e94894b921b13ae6b63368.mkv
Format : Matroska
Format version : Version 4 / Version 2
File size : 1.02 GiB
Duration : 54 min 50 s
Overall bit rate : 2 667 kb/s
Encoded date : UTC 2020-12-14 20:48:55
Writing application : mkvmerge v18.0.0 ('Apricity') 64-bit
Writing library : libebml v1.3.5 + libmatroska v1.4.8

Video
ID : 1
Format : AVC
Format/Info : Advanced Video Codec
Format profile : High@L4.1
Format settings : CABAC / 8 Ref Frames
Format settings, CABAC : Yes
Format settings, RefFrames : 8 frames
Codec ID : V_MPEG4/ISO/AVC
Duration : 54 min 50 s
Bit rate : 2 004 kb/s
Width : 1 280 pixels
Height : 640 pixels
Display aspect ratio : 2.000
Frame rate mode : Constant
Frame rate : 25.000 FPS
Color space : YUV
Chroma subsampling : 4:2:0
Bit depth : 8 bits
Scan type : Progressive
Bits/(Pixel*Frame) : 0.098
Stream size : 786 MiB (75%)
Writing library : x264 core 161 r3027 4121277
Encoding settings : cabac=1 / ref=8 / deblock=1:-3:-3 / analyse=0x3:0x133 / me=umh / subme=9 / psy=1 / psy_rd=1.00:0.00 / mixed_ref=1 / me_range=16 / chroma_me=1 / trellis=2 / 8x8dct=1 / cqm=0 / deadzone=21,11 / fast_pskip=0 / chroma_qp_offset=-2 / threads=12 / lookahead_threads=1 / sliced_threads=0 / nr=0 / decimate=1 / interlaced=0 / bluray_compat=0 / constrained_intra=0 / bframes=3 / b_pyramid=2 / b_adapt=2 / b_bias=0 / direct=3 / weightb=1 / open_gop=0 / weightp=2 / keyint=250 / keyint_min=25 / scenecut=40 / intra_refresh=0 / rc_lookahead=60 / rc=crf / mbtree=1 / crf=17.0 / qcomp=0.60 / qpmin=0 / qpmax=69 / qpstep=4 / ip_ratio=1.40 / aq=1:1.00
Language : English
Default : Yes
Forced : No

Audio
ID : 2
Format : AC-3
Format/Info : Audio Coding 3
Format settings, Endianness : Big
Codec ID : A_AC3
Duration : 54 min 50 s
Bit rate mode : Constant
Bit rate : 640 kb/s
Channel(s) : 6 channels
Channel positions : Front: L C R, Side: L R, LFE
Sampling rate : 48.0 kHz
Frame rate : 31.250 FPS (1536 SPF)
Bit depth : 16 bits
Compression mode : Lossy
Stream size : 251 MiB (24%)
Language : German
Service kind : Complete Main
Default : Yes
Forced : No

Text #1
ID : 3
Format : UTF-8
Codec ID : S_TEXT/UTF8
Codec ID/Info : UTF-8 Plain Text
Duration : 54 min 8 s
Bit rate : 43 b/s
Count of elements : 600
Stream size : 17.2 KiB (0%)
Language : English
Default : Yes
Forced : No

Text #2
ID : 4
Format : PGS
Muxing mode : zlib
Codec ID : S_HDMV/PGS
Codec ID/Info : Picture based subtitle format used on BDs/HD-DVDs
Duration : 54 min 8 s
Bit rate : 28.7 kb/s
Count of elements : 1078
Stream size : 11.1 MiB (1%)
Language : German
Default : No
Forced : No

Text #3
ID : 5
Format : PGS
Muxing mode : zlib
Codec ID : S_HDMV/PGS
Codec ID/Info : Picture based subtitle format used on BDs/HD-DVDs
Duration : 1 s 0 ms
Bit rate : 4 776 b/s
Count of elements : 2
Stream size : 597 Bytes (0%)
Language : German
Default : No
Forced : No

Text #4
ID : 6
Format : PGS
Muxing mode : zlib
Codec ID : S_HDMV/PGS
Codec ID/Info : Picture based subtitle format used on BDs/HD-DVDs
Duration : 50 min 55 s
Bit rate : 3 790 b/s
Count of elements : 150
Stream size : 1.38 MiB (0%)
Language : German
Default : No
Forced : No

Text #5
ID : 7
Format : PGS
Muxing mode : zlib
Codec ID : S_HDMV/PGS
Codec ID/Info : Picture based subtitle format used on BDs/HD-DVDs
Duration : 54 min 8 s
Bit rate : 24.1 kb/s
Count of elements : 1200
Stream size : 9.35 MiB (1%)
Language : English
Default : No
Forced : No

Menu
00:00:00.000 : en:00:00:00.000
00:05:53.760 : en:00:05:53.760
00:15:59.360 : en:00:15:59.360
00:25:58.600 : en:00:25:58.600
00:36:38.320 : en:00:36:38.320
00:46:27.840 : en:00:46:27.840
00:54:18.840 : en:00:54:18.840





Das Boot S02E05


Das Boot S02E05


Das Boot S02E05


Das Boot S02E05


Das Boot S02E05

All episodes