Index
# A B C D E F G H I J K L M N O P Q R S T U V W Y Z
Tags
Language
Tags

Featured TV Shows


Das Boot S03E04

Posted By: Tavaz
720p (HD) / WEB-DL IMDb
Das Boot S03E04

Das Boot S03E04
WEB-DL | MKV | 1280x720 | English | H264 @ 4829 kbps | E-AC-3 @ 192 kbps | 49 min 14 s | 1.72 GiB
Subtitles: English
Genre: Drama


An inexperienced U-boat crew has to survive a secret mission and a young German woman is torn between loyalty for her home country and the French resistance in the WWII drama.

9b4bfc2220114e0fbeed855fdef7dc27.mkv (1.7 GB)



General
Unique ID : 38412491376760091610898954251475696812 (0x1CE5FA0B821C4E529B77033773B13CAC)
Complete name : ./9b4bfc2220114e0fbeed855fdef7dc27.mkv
Format : Matroska
Format version : Version 4 / Version 2
File size : 1.72 GiB
Duration : 49 min 14 s
Overall bit rate : 5 015 kb/s
Writing application : mkvmerge v67.0.0 ('Under Stars') 64-bit
Writing library : libebml v1.4.2 + libmatroska v1.6.4

Video
ID : 1
Format : AVC
Format/Info : Advanced Video Codec
Format profile : High@L3.2
Format settings : CABAC / 2 Ref Frames
Format settings, CABAC : Yes
Format settings, RefFrames : 2 frames
Format settings, GOP : M=3, N=50
Codec ID : V_MPEG4/ISO/AVC
Duration : 49 min 14 s
Bit rate mode : Constant
Bit rate : 4 830 kb/s
Width : 1 280 pixels
Height : 720 pixels
Display aspect ratio : 16:9
Frame rate mode : Constant
Frame rate : 25.000 FPS
Color space : YUV
Chroma subsampling : 4:2:0
Bit depth : 8 bits
Scan type : Progressive
Bits/(Pixel*Frame) : 0.210
Stream size : 1.66 GiB (96%)
Default : Yes
Forced : No

Audio
ID : 2
Format : E-AC-3
Format/Info : Enhanced Audio Coding 3
Format settings, Endianness : Big
Codec ID : A_EAC3
Duration : 49 min 14 s
Bit rate mode : Constant
Bit rate : 192 kb/s
Channel(s) : 6 channels
Channel positions : Front: L C R, Side: L R, LFE
Sampling rate : 48.0 kHz
Frame rate : 187.500 FPS (256 SPF)
Compression mode : Lossy
Stream size : 67.6 MiB (4%)
Language : English
Service kind : Complete Main
Default : Yes
Forced : No

Text #1
ID : 3
Format : UTF-8
Codec ID : S_TEXT/UTF8
Codec ID/Info : UTF-8 Plain Text
Duration : 48 min 18 s
Bit rate : 20 b/s
Count of elements : 203
Stream size : 7.13 KiB (0%)
Language : English
Default : No
Forced : No

Text #2
ID : 4
Format : UTF-8
Codec ID : S_TEXT/UTF8
Codec ID/Info : UTF-8 Plain Text
Duration : 48 min 18 s
Bit rate : 23 b/s
Count of elements : 269
Stream size : 8.19 KiB (0%)
Title : SDH
Language : English
Default : No
Forced : No

Menu
00:00:00.000 : en:Chapter 1
00:48:33.240 : en:Credits





Das Boot S03E04


Das Boot S03E04


Das Boot S03E04


Das Boot S03E04


Das Boot S03E04

All episodes