Index
# A B C D E F G H I J K L M N O P Q R S T U V W Y Z
Tags
Language
Tags

Featured TV Shows


Das Boot S03E05

Posted By: Tavaz
1080p (FullHD) / WEB-DL IMDb
Das Boot S03E05

Das Boot S03E05
WEB-DL | MKV | 1920x1080 | English | H264 @ 7829 kbps | E-AC-3 @ 192 kbps | 52 min 7 s | 2.92 GiB
Subtitles: English
Genre: Drama


An inexperienced U-boat crew has to survive a secret mission and a young German woman is torn between loyalty for her home country and the French resistance in the WWII drama.

0bd4d4b94a3641d3b572f8281f9ebbb1.mkv (2.9 GB)



General
Unique ID : 22704605681346687864428538274524739896 (0x1114BF7CA5C74E37EA4AD249AC94B938)
Complete name : ./0bd4d4b94a3641d3b572f8281f9ebbb1.mkv
Format : Matroska
Format version : Version 4 / Version 2
File size : 2.92 GiB
Duration : 52 min 7 s
Overall bit rate : 8 019 kb/s
Writing application : mkvmerge v67.0.0 ('Under Stars') 64-bit
Writing library : libebml v1.4.2 + libmatroska v1.6.4

Video
ID : 1
Format : AVC
Format/Info : Advanced Video Codec
Format profile : High@L4.1
Format settings : CABAC / 2 Ref Frames
Format settings, CABAC : Yes
Format settings, RefFrames : 2 frames
Format settings, GOP : M=3, N=50
Codec ID : V_MPEG4/ISO/AVC
Duration : 52 min 7 s
Bit rate mode : Constant
Bit rate : 7 830 kb/s
Width : 1 920 pixels
Height : 1 080 pixels
Display aspect ratio : 16:9
Frame rate mode : Constant
Frame rate : 25.000 FPS
Color space : YUV
Chroma subsampling : 4:2:0
Bit depth : 8 bits
Scan type : Progressive
Bits/(Pixel*Frame) : 0.151
Stream size : 2.85 GiB (98%)
Default : Yes
Forced : No

Audio
ID : 2
Format : E-AC-3
Format/Info : Enhanced Audio Coding 3
Format settings, Endianness : Big
Codec ID : A_EAC3
Duration : 52 min 7 s
Bit rate mode : Constant
Bit rate : 192 kb/s
Channel(s) : 6 channels
Channel positions : Front: L C R, Side: L R, LFE
Sampling rate : 48.0 kHz
Frame rate : 187.500 FPS (256 SPF)
Compression mode : Lossy
Stream size : 71.6 MiB (2%)
Language : English
Service kind : Complete Main
Default : Yes
Forced : No

Text #1
ID : 3
Format : UTF-8
Codec ID : S_TEXT/UTF8
Codec ID/Info : UTF-8 Plain Text
Duration : 51 min 45 s
Bit rate : 12 b/s
Count of elements : 143
Stream size : 4.80 KiB (0%)
Language : English
Default : No
Forced : No

Text #2
ID : 4
Format : UTF-8
Codec ID : S_TEXT/UTF8
Codec ID/Info : UTF-8 Plain Text
Duration : 51 min 45 s
Bit rate : 14 b/s
Count of elements : 179
Stream size : 5.38 KiB (0%)
Title : SDH
Language : English
Default : No
Forced : No

Menu
00:00:00.000 : en:Chapter 1
00:51:28.960 : en:Credits





Das Boot S03E05


Das Boot S03E05


Das Boot S03E05


Das Boot S03E05


Das Boot S03E05

All episodes