Index
# A B C D E F G H I J K L M N O P Q R S T U V W Y Z
Tags
Language
Tags

Featured TV Shows


Das Boot S03E08

Posted By: Tavaz
1080p (FullHD) / WEB-DL IMDb
Das Boot S03E08

Das Boot S03E08
WEB-DL | MKV | 1920x1080 | English | H264 @ 7829 kbps | E-AC-3 @ 192 kbps | 48 min 29 s | 2.72 GiB
Subtitles: English
Genre: Drama


An inexperienced U-boat crew has to survive a secret mission and a young German woman is torn between loyalty for her home country and the French resistance in the WWII drama.

d6ac287171ea42938a1310a4309b2a79.mkv (2.7 GB)



General
Unique ID : 84923340415758538368752956101836518834 (0x3FE3A3F31DC4709079E2F16E1F6DB5B2)
Complete name : ./d6ac287171ea42938a1310a4309b2a79.mkv
Format : Matroska
Format version : Version 4 / Version 2
File size : 2.72 GiB
Duration : 48 min 29 s
Overall bit rate : 8 017 kb/s
Writing application : mkvmerge v67.0.0 ('Under Stars') 64-bit
Writing library : libebml v1.4.2 + libmatroska v1.6.4

Video
ID : 1
Format : AVC
Format/Info : Advanced Video Codec
Format profile : High@L4.1
Format settings : CABAC / 2 Ref Frames
Format settings, CABAC : Yes
Format settings, RefFrames : 2 frames
Codec ID : V_MPEG4/ISO/AVC
Duration : 48 min 29 s
Bit rate mode : Constant
Bit rate : 7 830 kb/s
Width : 1 920 pixels
Height : 1 080 pixels
Display aspect ratio : 16:9
Frame rate mode : Constant
Frame rate : 25.000 FPS
Color space : YUV
Chroma subsampling : 4:2:0
Bit depth : 8 bits
Scan type : Progressive
Bits/(Pixel*Frame) : 0.151
Stream size : 2.65 GiB (98%)
Default : Yes
Forced : No

Audio
ID : 2
Format : E-AC-3
Format/Info : Enhanced Audio Coding 3
Format settings, Endianness : Big
Codec ID : A_EAC3
Duration : 48 min 29 s
Bit rate mode : Constant
Bit rate : 192 kb/s
Channel(s) : 6 channels
Channel positions : Front: L C R, Side: L R, LFE
Sampling rate : 48.0 kHz
Frame rate : 187.500 FPS (256 SPF)
Compression mode : Lossy
Stream size : 66.6 MiB (2%)
Language : English
Service kind : Complete Main
Default : Yes
Forced : No

Text #1
ID : 3
Format : UTF-8
Codec ID : S_TEXT/UTF8
Codec ID/Info : UTF-8 Plain Text
Duration : 47 min 52 s
Bit rate : 15 b/s
Count of elements : 170
Stream size : 5.30 KiB (0%)
Language : English
Default : No
Forced : No

Text #2
ID : 4
Format : UTF-8
Codec ID : S_TEXT/UTF8
Codec ID/Info : UTF-8 Plain Text
Duration : 47 min 52 s
Bit rate : 18 b/s
Count of elements : 244
Stream size : 6.66 KiB (0%)
Title : SDH
Language : English
Default : No
Forced : No

Menu
00:00:00.000 : en:Chapter 1
00:47:52.080 : en:Credits





Das Boot S03E08


Das Boot S03E08


Das Boot S03E08


Das Boot S03E08


Das Boot S03E08

All episodes