Index
# A B C D E F G H I J K L M N O P Q R S T U V W Y Z
Tags
Language
Tags

Featured TV Shows


Das Boot S03E09

Posted By: Tavaz
1080p (FullHD) / WEB-DL IMDb
Das Boot S03E09

Das Boot S03E09
WEB-DL | MKV | 1920x1080 | English | H264 @ 7829 kbps | E-AC-3 @ 192 kbps | 45 min 56 s | 2.57 GiB
Subtitles: English
Genre: Drama


An inexperienced U-boat crew has to survive a secret mission and a young German woman is torn between loyalty for her home country and the French resistance in the WWII drama.

b5ef4eb970944a97b2ff268dd00ede29.mkv (2.6 GB)



General
Unique ID : 186331621733830962024540285796977590313 (0x8C2E2A3CAD0D56FCC5829F17AAA9C029)
Complete name : ./b5ef4eb970944a97b2ff268dd00ede29.mkv
Format : Matroska
Format version : Version 4 / Version 2
File size : 2.57 GiB
Duration : 45 min 56 s
Overall bit rate : 8 017 kb/s
Writing application : mkvmerge v67.0.0 ('Under Stars') 64-bit
Writing library : libebml v1.4.2 + libmatroska v1.6.4

Video
ID : 1
Format : AVC
Format/Info : Advanced Video Codec
Format profile : High@L4.1
Format settings : CABAC / 2 Ref Frames
Format settings, CABAC : Yes
Format settings, RefFrames : 2 frames
Codec ID : V_MPEG4/ISO/AVC
Duration : 45 min 56 s
Bit rate mode : Constant
Bit rate : 7 830 kb/s
Width : 1 920 pixels
Height : 1 080 pixels
Display aspect ratio : 16:9
Frame rate mode : Constant
Frame rate : 25.000 FPS
Color space : YUV
Chroma subsampling : 4:2:0
Bit depth : 8 bits
Scan type : Progressive
Bits/(Pixel*Frame) : 0.151
Stream size : 2.51 GiB (98%)
Default : Yes
Forced : No

Audio
ID : 2
Format : E-AC-3
Format/Info : Enhanced Audio Coding 3
Format settings, Endianness : Big
Codec ID : A_EAC3
Duration : 45 min 56 s
Bit rate mode : Constant
Bit rate : 192 kb/s
Channel(s) : 6 channels
Channel positions : Front: L C R, Side: L R, LFE
Sampling rate : 48.0 kHz
Frame rate : 187.500 FPS (256 SPF)
Compression mode : Lossy
Stream size : 63.1 MiB (2%)
Language : English
Service kind : Complete Main
Default : Yes
Forced : No

Text #1
ID : 3
Format : UTF-8
Codec ID : S_TEXT/UTF8
Codec ID/Info : UTF-8 Plain Text
Duration : 45 min 31 s
Bit rate : 19 b/s
Count of elements : 200
Stream size : 6.36 KiB (0%)
Language : English
Default : No
Forced : No

Text #2
ID : 4
Format : UTF-8
Codec ID : S_TEXT/UTF8
Codec ID/Info : UTF-8 Plain Text
Duration : 45 min 31 s
Bit rate : 21 b/s
Count of elements : 240
Stream size : 7.17 KiB (0%)
Title : SDH
Language : English
Default : No
Forced : No

Menu
00:00:00.000 : en:Chapter 1
00:45:20.080 : en:Credits





Das Boot S03E09


Das Boot S03E09


Das Boot S03E09


Das Boot S03E09


Das Boot S03E09

All episodes