Featured TV Shows


Dear White People S02E05

Posted By: Tavaz
720p (HD) / WEBRip IMDb
Dear White People S02E05

Dear White People S02E05
WEBRip | MKV | 1280x640 | English | H264 @ 2411 kbps | AC-3 @ 384 kbps | 28 min 34 s | 572 MiB
Subtitles: German, Dutch, French, Spanish, English
Genre: Comedy

At a predominantly white Ivy League college, a diverse group of students navigate various forms of racial and other types of discrimination.

b6baa6e4e2424c5495f2e3ce33800952.mkv (571.8 MB)



General
Unique ID : 315159580596864690688849111190751228327 (0xED1987009E95D487BBB782AF7B8931A7)
Complete name : ./b6baa6e4e2424c5495f2e3ce33800952.mkv
Format : Matroska
Format version : Version 4 / Version 2
File size : 572 MiB
Duration : 28 min 34 s
Overall bit rate : 2 798 kb/s
Encoded date : UTC 2018-05-04 17:23:28
Writing application : mkvmerge v21.0.0 ('Tardigrades Will Inherit The Earth') 64-bit
Writing library : libebml v1.3.5 + libmatroska v1.4.8

Video
ID : 1
Format : AVC
Format/Info : Advanced Video Codec
Format profile : High@L4.1
Format settings : CABAC / 5 Ref Frames
Format settings, CABAC : Yes
Format settings, RefFrames : 5 frames
Codec ID : V_MPEG4/ISO/AVC
Duration : 28 min 34 s
Bit rate : 2 412 kb/s
Width : 1 280 pixels
Height : 640 pixels
Display aspect ratio : 2.000
Frame rate mode : Constant
Frame rate : 23.976 (24000/1001) FPS
Color space : YUV
Chroma subsampling : 4:2:0
Bit depth : 8 bits
Scan type : Progressive
Bits/(Pixel*Frame) : 0.123
Stream size : 493 MiB (86%)
Writing library : x264 core 155 r2901 7d0ff22
Encoding settings : cabac=1 / ref=5 / deblock=1:-3:-3 / analyse=0x3:0x113 / me=hex / subme=8 / psy=1 / psy_rd=1.00:0.15 / mixed_ref=1 / me_range=16 / chroma_me=1 / trellis=2 / 8x8dct=1 / cqm=0 / deadzone=21,11 / fast_pskip=0 / chroma_qp_offset=-2 / threads=20 / lookahead_threads=3 / sliced_threads=0 / nr=0 / decimate=1 / interlaced=0 / bluray_compat=0 / constrained_intra=0 / bframes=3 / b_pyramid=2 / b_adapt=1 / b_bias=0 / direct=3 / weightb=1 / open_gop=0 / weightp=2 / keyint=250 / keyint_min=23 / scenecut=40 / intra_refresh=0 / rc_lookahead=50 / rc=crf / mbtree=1 / crf=18.0 / qcomp=0.60 / qpmin=0 / qpmax=69 / qpstep=4 / ip_ratio=1.40 / aq=3:0.80
Language : English
Default : Yes
Forced : No
Color range : Limited
Matrix coefficients : BT.709

Audio
ID : 2
Format : AC-3
Format/Info : Audio Coding 3
Format settings, Endianness : Big
Codec ID : A_AC3
Duration : 28 min 34 s
Bit rate mode : Constant
Bit rate : 384 kb/s
Channel(s) : 6 channels
Channel positions : Front: L C R, Side: L R, LFE
Sampling rate : 48.0 kHz
Frame rate : 31.250 FPS (1536 SPF)
Bit depth : 16 bits
Compression mode : Lossy
Stream size : 78.5 MiB (14%)
Language : English
Service kind : Complete Main
Default : Yes
Forced : No

Text #1
ID : 3
Format : UTF-8
Codec ID : S_TEXT/UTF8
Codec ID/Info : UTF-8 Plain Text
Duration : 27 min 29 s
Bit rate : 104 b/s
Count of elements : 642
Stream size : 21.0 KiB (0%)
Language : English
Default : No
Forced : No

Text #2
ID : 4
Format : UTF-8
Codec ID : S_TEXT/UTF8
Codec ID/Info : UTF-8 Plain Text
Duration : 26 min 30 s
Bit rate : 78 b/s
Count of elements : 346
Stream size : 15.2 KiB (0%)
Language : Dutch
Default : No
Forced : No

Text #3
ID : 5
Format : UTF-8
Codec ID : S_TEXT/UTF8
Codec ID/Info : UTF-8 Plain Text
Duration : 26 min 49 s
Bit rate : 87 b/s
Count of elements : 453
Stream size : 17.3 KiB (0%)
Title : European
Language : Spanish
Default : No
Forced : No

Text #4
ID : 6
Format : UTF-8
Codec ID : S_TEXT/UTF8
Codec ID/Info : UTF-8 Plain Text
Duration : 26 min 49 s
Bit rate : 90 b/s
Count of elements : 443
Stream size : 17.8 KiB (0%)
Language : French
Default : No
Forced : No

Text #5
ID : 7
Format : UTF-8
Codec ID : S_TEXT/UTF8
Codec ID/Info : UTF-8 Plain Text
Duration : 27 min 58 s
Bit rate : 88 b/s
Count of elements : 422
Stream size : 18.1 KiB (0%)
Language : German
Default : No
Forced : No





Dear White People S02E05


Dear White People S02E05


Dear White People S02E05


Dear White People S02E05


Dear White People S02E05

All episodes