Featured TV Shows


Dear White People S02E08

Posted By: Tavaz
720p (HD) / WEBRip IMDb
Dear White People S02E08

Dear White People S02E08
WEBRip | MKV | 1280x640 | English | H264 @ 1564 kbps | AC-3 @ 384 kbps | 32 min 12 s | 449 MiB
Subtitles: Swedish, Norwegian, Finnish, German, English
Genre: Comedy

At a predominantly white Ivy League college, a diverse group of students navigate various forms of racial and other types of discrimination.

b13ca5759cb4439a943f23d9b84161dc.mkv (449.5 MB)



General
Unique ID : 145654740658964558805738529014871647943 (0x6D9415290E2EB0899DE7C08E15F266C7)
Complete name : ./b13ca5759cb4439a943f23d9b84161dc.mkv
Format : Matroska
Format version : Version 4 / Version 2
File size : 449 MiB
Duration : 32 min 12 s
Overall bit rate : 1 951 kb/s
Encoded date : UTC 2018-05-04 07:54:47
Writing application : mkvmerge v20.0.0 ('I Am The Sun') 64-bit
Writing library : libebml v1.3.5 + libmatroska v1.4.8

Video
ID : 7
Format : AVC
Format/Info : Advanced Video Codec
Format profile : High@L3.1
Format settings : CABAC / 4 Ref Frames
Format settings, CABAC : Yes
Format settings, RefFrames : 4 frames
Codec ID : V_MPEG4/ISO/AVC
Duration : 32 min 12 s
Bit rate : 1 565 kb/s
Width : 1 280 pixels
Height : 640 pixels
Display aspect ratio : 2.000
Frame rate mode : Constant
Frame rate : 23.976 (24000/1001) FPS
Color space : YUV
Chroma subsampling : 4:2:0
Bit depth : 8 bits
Scan type : Progressive
Bits/(Pixel*Frame) : 0.080
Stream size : 360 MiB (80%)
Writing library : x264 core 155 r2901 7d0ff22
Encoding settings : cabac=1 / ref=3 / deblock=1:0:0 / analyse=0x3:0x113 / me=hex / subme=7 / psy=1 / psy_rd=1.00:0.00 / mixed_ref=1 / me_range=16 / chroma_me=1 / trellis=1 / 8x8dct=1 / cqm=0 / deadzone=21,11 / fast_pskip=1 / chroma_qp_offset=-2 / threads=20 / lookahead_threads=3 / sliced_threads=0 / nr=0 / decimate=1 / interlaced=0 / bluray_compat=0 / constrained_intra=0 / bframes=3 / b_pyramid=2 / b_adapt=1 / b_bias=0 / direct=1 / weightb=1 / open_gop=0 / weightp=2 / keyint=250 / keyint_min=23 / scenecut=40 / intra_refresh=0 / rc_lookahead=40 / rc=crf / mbtree=1 / crf=18.0 / qcomp=0.60 / qpmin=0 / qpmax=69 / qpstep=4 / ip_ratio=1.40 / aq=1:1.00
Default : Yes
Forced : No

Audio
ID : 1
Format : AC-3
Format/Info : Audio Coding 3
Format settings, Endianness : Big
Codec ID : A_AC3
Duration : 32 min 12 s
Bit rate mode : Constant
Bit rate : 384 kb/s
Channel(s) : 6 channels
Channel positions : Front: L C R, Side: L R, LFE
Sampling rate : 48.0 kHz
Frame rate : 31.250 FPS (1536 SPF)
Bit depth : 16 bits
Compression mode : Lossy
Stream size : 88.5 MiB (20%)
Service kind : Complete Main
Default : Yes
Forced : No

Text #1
ID : 2
Format : UTF-8
Codec ID : S_TEXT/UTF8
Codec ID/Info : UTF-8 Plain Text
Duration : 31 min 19 s
Bit rate : 90 b/s
Count of elements : 670
Stream size : 20.7 KiB (0%)
Title : English
Language : English
Default : No
Forced : No

Text #2
ID : 3
Format : UTF-8
Codec ID : S_TEXT/UTF8
Codec ID/Info : UTF-8 Plain Text
Duration : 31 min 1 s
Bit rate : 77 b/s
Count of elements : 413
Stream size : 17.7 KiB (0%)
Title : Swedish
Language : Swedish
Default : No
Forced : No

Text #3
ID : 4
Format : UTF-8
Codec ID : S_TEXT/UTF8
Codec ID/Info : UTF-8 Plain Text
Duration : 31 min 1 s
Bit rate : 72 b/s
Count of elements : 426
Stream size : 16.6 KiB (0%)
Title : Norwegian
Language : Norwegian
Default : No
Forced : No

Text #4
ID : 5
Format : UTF-8
Codec ID : S_TEXT/UTF8
Codec ID/Info : UTF-8 Plain Text
Duration : 31 min 42 s
Bit rate : 81 b/s
Count of elements : 441
Stream size : 18.9 KiB (0%)
Title : German
Language : German
Default : No
Forced : No

Text #5
ID : 6
Format : UTF-8
Codec ID : S_TEXT/UTF8
Codec ID/Info : UTF-8 Plain Text
Duration : 31 min 2 s
Bit rate : 67 b/s
Count of elements : 389
Stream size : 15.4 KiB (0%)
Title : Finnish
Language : Finnish
Default : No
Forced : No





Dear White People S02E08


Dear White People S02E08


Dear White People S02E08


Dear White People S02E08


Dear White People S02E08

All episodes