Featured TV Shows


Death in Paradise S08E08

Posted By: Tavaz
720p (HD) / HDTV IMDb
Death in Paradise S08E08

Death in Paradise S08E08
HDTV | MKV | 1280x720 | English | H264 @ 2811 kbps | AC-3 @ 192 kbps | 57 min 33 s | 1.23 GiB
Genre: Comedy, Crime, Drama, Mystery

Detective Inspector Richard Poole is transferred to Sainte Marie, an island in the Caribbean. Totally unsuited to the Caribbean way of life, Richard hates the sun, sea and sand and isn't used to the Sainte Marie style of policing. Working with the exotic Camille each week Richard investigates intricate and intriguing murders.

e9ac9d23a1cc4ea3bf570615aaabcfff.mkv (1.2 GB)



General
Complete name : ./e9ac9d23a1cc4ea3bf570615aaabcfff.mkv
Format : Matroska
Format version : Version 2
File size : 1.23 GiB
Duration : 57 min 33 s
Overall bit rate : 3 065 kb/s
Writing application : x264.exe
Writing library : mkv2rls x264-tv version built on 2016.10.12

Video
ID : 1
Format : AVC
Format/Info : Advanced Video Codec
Format profile : High@L4.1
Format settings : CABAC / 5 Ref Frames
Format settings, CABAC : Yes
Format settings, RefFrames : 5 frames
Codec ID : V_MPEG4/ISO/AVC
Duration : 57 min 33 s
Bit rate : 2 812 kb/s
Width : 1 280 pixels
Height : 720 pixels
Display aspect ratio : 16:9
Frame rate mode : Constant
Frame rate : 25.000 FPS
Color space : YUV
Chroma subsampling : 4:2:0
Bit depth : 8 bits
Scan type : Progressive
Bits/(Pixel*Frame) : 0.122
Stream size : 1.13 GiB (92%)
Writing library : x264 core 157 r2935 545de2f
Encoding settings : cabac=1 / ref=5 / deblock=1:0:0 / analyse=0x3:0x113 / me=hex / subme=8 / psy=1 / psy_rd=1.00:0.00 / mixed_ref=1 / me_range=16 / chroma_me=1 / trellis=2 / 8x8dct=1 / cqm=0 / deadzone=21,11 / fast_pskip=1 / chroma_qp_offset=-2 / threads=12 / lookahead_threads=2 / sliced_threads=0 / nr=0 / decimate=1 / interlaced=0 / bluray_compat=0 / constrained_intra=0 / bframes=3 / b_pyramid=2 / b_adapt=1 / b_bias=0 / direct=3 / weightb=1 / open_gop=0 / weightp=2 / keyint=250 / keyint_min=25 / scenecut=40 / intra_refresh=0 / rc_lookahead=50 / rc=crf / mbtree=1 / crf=18.0 / qcomp=0.60 / qpmin=0 / qpmax=69 / qpstep=4 / ip_ratio=1.40 / aq=1:1.00
Language : English
Default : Yes
Forced : No

Audio
ID : 2
Format : AC-3
Format/Info : Audio Coding 3
Format settings, Endianness : Big
Codec ID : A_AC3
Duration : 57 min 33 s
Bit rate mode : Constant
Bit rate : 192 kb/s
Channel(s) : 2 channels
Channel positions : Front: L R
Sampling rate : 48.0 kHz
Frame rate : 31.250 FPS (1536 SPF)
Bit depth : 16 bits
Compression mode : Lossy
Stream size : 79.0 MiB (6%)
Language : English
Service kind : Complete Main
Default : Yes
Forced : No





Death in Paradise S08E08


Death in Paradise S08E08


Death in Paradise S08E08


Death in Paradise S08E08


Death in Paradise S08E08

All episodes