Featured TV Shows


Meurtres au paradis S07E07

Posted By: Tavaz
SD / HDTV IMDb
Meurtres au paradis S07E07

Meurtres au paradis S07E07
HDTV | MKV | 720x404 | French | H264 @ 967 kbps | AAC @ 122 kbps | 57 min 33 s | 450 MiB
Genre: Comédie, Crime, Drame, Mystère

Le détective Richard Poole est muté à Sainte Marie, une île des Caraïbes. Totalement inadapté au style de vie caribéen, Richard déteste le soleil, la mer et le sable et n'est pas habitué aux méthodes policières de Sainte Marie. Travaillant de pair avec l'exotique Camille, chaque semaine, Richard enquête sur des meurtres complexes et inhabituels.

death.in.paradise.s07e07.french.hdtv.x264-amb3r-sample.mkv (7.2 MB)
death.in.paradise.s07e07.french.hdtv.x264-amb3r.mkv (449.7 MB)



General
Unique ID : 136468365583508031719765303920055527108 (0x66AAD9E68824B19620BCED6A775BA6C4)
Complete name : ./death.in.paradise.s07e07.french.hdtv.x264-amb3r.mkv
Format : Matroska
Format version : Version 2
File size : 450 MiB
Duration : 57 min 33 s
Overall bit rate : 1 092 kb/s
Encoded date : UTC 2018-06-23 20:14:46
Writing application : mkvmerge v24.0.0 ('Beyond The Pale') 64-bit
Writing library : libebml v1.3.6 + libmatroska v1.4.9

Video
ID : 1
Format : AVC
Format/Info : Advanced Video Codec
Format profile : High@L3.1
Format settings : CABAC / 5 Ref Frames
Format settings, CABAC : Yes
Format settings, RefFrames : 5 frames
Codec ID : V_MPEG4/ISO/AVC
Duration : 57 min 33 s
Bit rate : 967 kb/s
Width : 720 pixels
Height : 404 pixels
Display aspect ratio : 16:9
Frame rate mode : Constant
Frame rate : 25.000 FPS
Color space : YUV
Chroma subsampling : 4:2:0
Bit depth : 8 bits
Scan type : Progressive
Bits/(Pixel*Frame) : 0.133
Stream size : 398 MiB (89%)
Writing library : x264 core 155 r2901 7d0ff22
Encoding settings : cabac=1 / ref=5 / deblock=1:-3:-3 / analyse=0x3:0x112 / me=umh / subme=8 / psy=1 / psy_rd=1.00:0.00 / mixed_ref=1 / me_range=32 / chroma_me=1 / trellis=2 / 8x8dct=1 / cqm=0 / deadzone=21,11 / fast_pskip=0 / chroma_qp_offset=-2 / threads=12 / lookahead_threads=3 / sliced_threads=0 / nr=0 / decimate=1 / interlaced=0 / bluray_compat=0 / constrained_intra=0 / bframes=5 / b_pyramid=2 / b_adapt=2 / b_bias=0 / direct=3 / weightb=1 / open_gop=0 / weightp=2 / keyint=250 / keyint_min=25 / scenecut=40 / intra_refresh=0 / rc_lookahead=50 / rc=crf / mbtree=1 / crf=19.0 / qcomp=0.60 / qpmin=0 / qpmax=69 / qpstep=4 / vbv_maxrate=17500 / vbv_bufsize=17500 / crf_max=0.0 / nal_hrd=none / filler=0 / ip_ratio=1.40 / aq=1:1.00
Default : Yes
Forced : No
Color range : Limited
Color primaries : BT.709
Transfer characteristics : BT.709
Matrix coefficients : BT.709

Audio
ID : 2
Format : AAC
Format/Info : Advanced Audio Codec
Format profile : LC
Codec ID : A_AAC-2
Duration : 57 min 33 s
Bit rate : 123 kb/s
Channel(s) : 2 channels
Channel positions : Front: L R
Sampling rate : 48.0 kHz
Frame rate : 46.875 FPS (1024 SPF)
Compression mode : Lossy
Delay relative to video : 9 ms
Stream size : 50.4 MiB (11%)
Language : French
Default : Yes
Forced : No





Meurtres au paradis S07E07


Meurtres au paradis S07E07


Meurtres au paradis S07E07


Meurtres au paradis S07E07


Meurtres au paradis S07E07

All episodes