Index
# A B C D E F G H I J K L M N O P Q R S T U V W Y Z
Tags
Language
Tags

Featured TV Shows


Devs S01E08

Posted By: Tavaz
1080p (FullHD) / WEB-DL IMDb
Devs S01E08

Devs S01E08
WEB-DL | MKV | 1920x1080 | English | H264 @ 8681 kbps | E-AC-3 @ 640 kbps | 52 min 34 s | 3.42 GiB
Subtitles: English
Genre: Drama, Mystery


Young computer engineer Lily Chan investigates the secretive development division of her employer, a cutting-edge tech company based in San Francisco, which she believes is behind the murder of her boyfriend.

f3020da0a11a419780af1e262b0dc71c.mkv (3.4 GB)



General
Unique ID : 222694231246049254031027733865097941534 (0xA789594D92749E10DCE6F1405245521E)
Complete name : ./f3020da0a11a419780af1e262b0dc71c.mkv
Format : Matroska
Format version : Version 4 / Version 2
File size : 3.42 GiB
Duration : 52 min 34 s
Overall bit rate : 9 323 kb/s
Encoded date : UTC 2020-04-17 07:08:12
Writing application : mkvmerge v44.0.0 ('Domino') 64-bit
Writing library : libebml v1.3.10 + libmatroska v1.5.2

Video
ID : 1
Format : AVC
Format/Info : Advanced Video Codec
Format profile : High@L4
Format settings : CABAC / 4 Ref Frames
Format settings, CABAC : Yes
Format settings, RefFrames : 4 frames
Codec ID : V_MPEG4/ISO/AVC
Duration : 52 min 34 s
Bit rate mode : Constant
Bit rate : 8 681 kb/s
Nominal bit rate : 10 000 kb/s
Width : 1 920 pixels
Height : 1 080 pixels
Display aspect ratio : 16:9
Frame rate mode : Constant
Frame rate : 23.976 (24000/1001) FPS
Color space : YUV
Chroma subsampling : 4:2:0
Bit depth : 8 bits
Scan type : Progressive
Bits/(Pixel*Frame) : 0.175
Stream size : 3.19 GiB (93%)
Default : Yes
Forced : No
Color range : Limited
Color primaries : BT.709
Transfer characteristics : BT.709
Matrix coefficients : BT.709

Audio
ID : 2
Format : E-AC-3
Format/Info : Enhanced Audio Coding 3
Format settings, Endianness : Big
Codec ID : A_EAC3
Duration : 52 min 34 s
Bit rate mode : Constant
Bit rate : 640 kb/s
Channel(s) : 6 channels
Channel positions : Front: L C R, Side: L R, LFE
Sampling rate : 48.0 kHz
Frame rate : 187.500 FPS (256 SPF)
Compression mode : Lossy
Stream size : 241 MiB (7%)
Language : English
Service kind : Complete Main
Default : Yes
Forced : No

Text #1
ID : 3
Format : UTF-8
Codec ID : S_TEXT/UTF8
Codec ID/Info : UTF-8 Plain Text
Duration : 52 min 23 s
Bit rate : 22 b/s
Count of elements : 369
Stream size : 8.65 KiB (0%)
Language : English
Default : No
Forced : No

Text #2
ID : 4
Format : UTF-8
Codec ID : S_TEXT/UTF8
Codec ID/Info : UTF-8 Plain Text
Duration : 52 min 32 s
Bit rate : 24 b/s
Count of elements : 430
Stream size : 9.37 KiB (0%)
Title : SDH
Language : English
Default : No
Forced : No





Devs S01E08


Devs S01E08


Devs S01E08


Devs S01E08


Devs S01E08

All episodes