Featured TV Shows


Dickinson S01E01

Posted By: Tavaz
1080p (FullHD) / WEBRip IMDb
Dickinson S01E01

Dickinson S01E01
WEBRip | MKV | 1920x1080 | German / English | H264 @ 9953 kbps | E-AC-3 @ 768 kbps | 34 min 57 s | 2.81 GiB
Subtitles: Swedish, Estonian, Telugu, Vietnamese, Slovenian, Hindi, Dutch, Danish, Bulgarian, Hungarian, Ukrainian, Lithuanian, Malay, French, Norwegian, Russian, Thai, Tamil, Finnish, Hebrew, Indonesian, Greek, Latvian, English, Italian, Portuguese, Czech, Japanese, German, Slovak, Spanish, Polish, Arabic
Genre: Comedy


Emily Dickinson. Poet. Daughter. Total rebel. In this coming-of-age story, Emily’s determined to become the world’s greatest poet.

f9ae786978d84309a0299f14b08102e2.mkv (2.8 GB)



General
Unique ID : 106034458703445434951532447066170020395 (0x4FC57E713D1CB627CD4CE9FBD57F522B)
Complete name : ./f9ae786978d84309a0299f14b08102e2.mkv
Format : Matroska
Format version : Version 4 / Version 2
File size : 2.81 GiB
Duration : 34 min 57 s
Overall bit rate : 11.5 Mb/s
Encoded date : UTC 2019-11-22 09:31:10
Writing application : mkvmerge v30.1.0 ('Forever And More') 64-bit
Writing library : libebml v1.3.6 + libmatroska v1.4.9

Video
ID : 1
Format : AVC
Format/Info : Advanced Video Codec
Format profile : High@L4
Format settings : CABAC / 4 Ref Frames
Format settings, CABAC : Yes
Format settings, RefFrames : 4 frames
Codec ID : V_MPEG4/ISO/AVC
Duration : 34 min 57 s
Bit rate : 9 953 kb/s
Width : 1 920 pixels
Height : 1 080 pixels
Display aspect ratio : 16:9
Frame rate mode : Constant
Frame rate : 23.976 (23976/1000) FPS
Color space : YUV
Chroma subsampling : 4:2:0
Bit depth : 8 bits
Scan type : Progressive
Bits/(Pixel*Frame) : 0.200
Stream size : 2.43 GiB (87%)
Language : English
Default : Yes
Forced : No
Color range : Limited
Color primaries : BT.709
Transfer characteristics : BT.709
Matrix coefficients : BT.709

Audio #1
ID : 2
Format : E-AC-3
Format/Info : Enhanced Audio Coding 3
Format profile : E-AC-3+Atmos / E-AC-3
Format settings, Endianness : Big
Codec ID : A_EAC3
Duration : 34 min 57 s
Bit rate mode : Constant
Bit rate : 768 kb/s
Channel(s) : 15 objects / 6 channels
Channel positions : 15 objects / Front: L C R, Side: L R, LFE
Sampling rate : 48.0 kHz
Frame rate : 187.500 FPS (256 SPF)
Compression mode : Lossy
Stream size : 192 MiB (7%)
Language : German
Service kind : Complete Main
Default : Yes
Forced : No

Audio #2
ID : 3
Format : E-AC-3
Format/Info : Enhanced Audio Coding 3
Format profile : E-AC-3+Atmos / E-AC-3
Format settings, Endianness : Big
Codec ID : A_EAC3
Duration : 34 min 57 s
Bit rate mode : Constant
Bit rate : 768 kb/s
Channel(s) : 15 objects / 6 channels
Channel positions : 15 objects / Front: L C R, Side: L R, LFE
Sampling rate : 48.0 kHz
Frame rate : 187.500 FPS (256 SPF)
Compression mode : Lossy
Stream size : 192 MiB (7%)
Language : English
Service kind : Complete Main
Default : No
Forced : No

Text #1
ID : 4
Format : UTF-8
Codec ID : S_TEXT/UTF8
Codec ID/Info : UTF-8 Plain Text
Duration : 34 min 46 s
Bit rate : 83 b/s
Count of elements : 480
Stream size : 21.4 KiB (0%)
Title : العربية
Language : Arabic
Default : No
Forced : No

Text #2
ID : 5
Format : UTF-8
Codec ID : S_TEXT/UTF8
Codec ID/Info : UTF-8 Plain Text
Duration : 34 min 46 s
Bit rate : 82 b/s
Count of elements : 481
Stream size : 21.1 KiB (0%)
Title : български
Language : Bulgarian
Default : No
Forced : No

Text #3
ID : 6
Format : UTF-8
Codec ID : S_TEXT/UTF8
Codec ID/Info : UTF-8 Plain Text
Duration : 34 min 46 s
Bit rate : 54 b/s
Count of elements : 481
Stream size : 13.9 KiB (0%)
Title : Čeština
Language : Czech
Default : No
Forced : No

Text #4
ID : 7
Format : UTF-8
Codec ID : S_TEXT/UTF8
Codec ID/Info : UTF-8 Plain Text
Duration : 34 min 46 s
Bit rate : 55 b/s
Count of elements : 479
Stream size : 14.1 KiB (0%)
Title : dansk
Language : Danish
Default : No
Forced : No

Text #5
ID : 8
Format : UTF-8
Codec ID : S_TEXT/UTF8
Codec ID/Info : UTF-8 Plain Text
Duration : 34 min 46 s
Bit rate : 59 b/s
Count of elements : 394
Stream size : 15.3 KiB (0%)
Title : Deutsch
Language : German
Default : No
Forced : No

Text #6
ID : 9
Format : UTF-8
Codec ID : S_TEXT/UTF8
Codec ID/Info : UTF-8 Plain Text
Duration : 33 min 38 s
Bit rate : 70 b/s
Count of elements : 449
Stream size : 17.5 KiB (0%)
Title : Deutsch [SDH]
Language : German
Default : No
Forced : No

Text #7
ID : 10
Format : UTF-8
Codec ID : S_TEXT/UTF8
Codec ID/Info : UTF-8 Plain Text
Duration : 15 min 7 s
Bit rate : 0 b/s
Count of elements : 3
Stream size : 59.0 Bytes (0%)
Title : Deutsch (forced)
Language : German
Default : Yes
Forced : Yes

Text #8
ID : 11
Format : UTF-8
Codec ID : S_TEXT/UTF8
Codec ID/Info : UTF-8 Plain Text
Duration : 34 min 46 s
Bit rate : 96 b/s
Count of elements : 481
Stream size : 24.7 KiB (0%)
Title : Ελληνικά
Language : Greek
Default : No
Forced : No

Text #9
ID : 12
Format : UTF-8
Codec ID : S_TEXT/UTF8
Codec ID/Info : UTF-8 Plain Text
Duration : 33 min 30 s
Bit rate : 60 b/s
Count of elements : 475
Stream size : 14.8 KiB (0%)
Title : English
Language : English
Default : No
Forced : No

Text #10
ID : 13
Format : UTF-8
Codec ID : S_TEXT/UTF8
Codec ID/Info : UTF-8 Plain Text
Duration : 34 min 46 s
Bit rate : 62 b/s
Count of elements : 475
Stream size : 16.0 KiB (0%)
Title : Español
Language : Spanish
Default : No
Forced : No

Text #11
ID : 14
Format : UTF-8
Codec ID : S_TEXT/UTF8
Codec ID/Info : UTF-8 Plain Text
Duration : 34 min 46 s
Bit rate : 52 b/s
Count of elements : 480
Stream size : 13.3 KiB (0%)
Title : eesti
Language : Estonian
Default : No
Forced : No

Text #12
ID : 15
Format : UTF-8
Codec ID : S_TEXT/UTF8
Codec ID/Info : UTF-8 Plain Text
Duration : 34 min 46 s
Bit rate : 52 b/s
Count of elements : 480
Stream size : 13.5 KiB (0%)
Title : Suomi
Language : Finnish
Default : No
Forced : No

Text #13
ID : 16
Format : UTF-8
Codec ID : S_TEXT/UTF8
Codec ID/Info : UTF-8 Plain Text
Duration : 34 min 46 s
Bit rate : 53 b/s
Count of elements : 464
Stream size : 13.6 KiB (0%)
Title : Français (France)
Language : French
Default : No
Forced : No

Text #14
ID : 17
Format : UTF-8
Codec ID : S_TEXT/UTF8
Codec ID/Info : UTF-8 Plain Text
Duration : 34 min 46 s
Bit rate : 75 b/s
Count of elements : 481
Stream size : 19.3 KiB (0%)
Title : עברית
Language : Hebrew
Default : No
Forced : No

Text #15
ID : 18
Format : UTF-8
Codec ID : S_TEXT/UTF8
Codec ID/Info : UTF-8 Plain Text
Duration : 34 min 46 s
Bit rate : 155 b/s
Count of elements : 481
Stream size : 39.6 KiB (0%)
Title : हिन्दी
Language : Hindi
Default : No
Forced : No

Text #16
ID : 19
Format : UTF-8
Codec ID : S_TEXT/UTF8
Codec ID/Info : UTF-8 Plain Text
Duration : 34 min 46 s
Bit rate : 55 b/s
Count of elements : 478
Stream size : 14.2 KiB (0%)
Title : magyar
Language : Hungarian
Default : No
Forced : No

Text #17
ID : 20
Format : UTF-8
Codec ID : S_TEXT/UTF8
Codec ID/Info : UTF-8 Plain Text
Duration : 34 min 46 s
Bit rate : 57 b/s
Count of elements : 480
Stream size : 14.8 KiB (0%)
Title : Bahasa Indonesia
Language : Indonesian
Default : No
Forced : No

Text #18
ID : 21
Format : UTF-8
Codec ID : S_TEXT/UTF8
Codec ID/Info : UTF-8 Plain Text
Duration : 34 min 46 s
Bit rate : 57 b/s
Count of elements : 461
Stream size : 14.7 KiB (0%)
Title : Italiano
Language : Italian
Default : No
Forced : No

Text #19
ID : 22
Format : UTF-8
Codec ID : S_TEXT/UTF8
Codec ID/Info : UTF-8 Plain Text
Duration : 34 min 46 s
Bit rate : 46 b/s
Count of elements : 453
Stream size : 11.9 KiB (0%)
Title : 日本語
Language : Japanese
Default : No
Forced : No

Text #20
ID : 23
Format : UTF-8
Codec ID : S_TEXT/UTF8
Codec ID/Info : UTF-8 Plain Text
Duration : 34 min 46 s
Bit rate : 55 b/s
Count of elements : 481
Stream size : 14.0 KiB (0%)
Title : lietuvių
Language : Lithuanian
Default : No
Forced : No

Text #21
ID : 24
Format : UTF-8
Codec ID : S_TEXT/UTF8
Codec ID/Info : UTF-8 Plain Text
Duration : 34 min 46 s
Bit rate : 56 b/s
Count of elements : 481
Stream size : 14.3 KiB (0%)
Title : latviešu
Language : Latvian
Default : No
Forced : No

Text #22
ID : 25
Format : UTF-8
Codec ID : S_TEXT/UTF8
Codec ID/Info : UTF-8 Plain Text
Duration : 34 min 46 s
Bit rate : 60 b/s
Count of elements : 480
Stream size : 15.3 KiB (0%)
Title : Bahasa Melayu
Language : Malay
Default : No
Forced : No

Text #23
ID : 26
Format : UTF-8
Codec ID : S_TEXT/UTF8
Codec ID/Info : UTF-8 Plain Text
Duration : 34 min 46 s
Bit rate : 50 b/s
Count of elements : 473
Stream size : 12.7 KiB (0%)
Title : Nederlands
Language : Dutch
Default : No
Forced : No

Text #24
ID : 27
Format : UTF-8
Codec ID : S_TEXT/UTF8
Codec ID/Info : UTF-8 Plain Text
Duration : 34 min 46 s
Bit rate : 57 b/s
Count of elements : 480
Stream size : 14.7 KiB (0%)
Title : norsk
Language : Norwegian
Default : No
Forced : No

Text #25
ID : 28
Format : UTF-8
Codec ID : S_TEXT/UTF8
Codec ID/Info : UTF-8 Plain Text
Duration : 34 min 46 s
Bit rate : 53 b/s
Count of elements : 480
Stream size : 13.6 KiB (0%)
Title : polski
Language : Polish
Default : No
Forced : No

Text #26
ID : 29
Format : UTF-8
Codec ID : S_TEXT/UTF8
Codec ID/Info : UTF-8 Plain Text
Duration : 34 min 46 s
Bit rate : 50 b/s
Count of elements : 480
Stream size : 12.9 KiB (0%)
Title : Português (Brasil)
Language : Portuguese
Default : No
Forced : No

Text #27
ID : 30
Format : UTF-8
Codec ID : S_TEXT/UTF8
Codec ID/Info : UTF-8 Plain Text
Duration : 34 min 46 s
Bit rate : 56 b/s
Count of elements : 480
Stream size : 14.4 KiB (0%)
Title : Português
Language : Portuguese
Default : No
Forced : No

Text #28
ID : 31
Format : UTF-8
Codec ID : S_TEXT/UTF8
Codec ID/Info : UTF-8 Plain Text
Duration : 34 min 46 s
Bit rate : 94 b/s
Count of elements : 481
Stream size : 24.0 KiB (0%)
Title : Русский
Language : Russian
Default : No
Forced : No

Text #29
ID : 32
Format : UTF-8
Codec ID : S_TEXT/UTF8
Codec ID/Info : UTF-8 Plain Text
Duration : 34 min 46 s
Bit rate : 51 b/s
Count of elements : 481
Stream size : 13.2 KiB (0%)
Title : Slovenčina
Language : Slovak
Default : No
Forced : No

Text #30
ID : 33
Format : UTF-8
Codec ID : S_TEXT/UTF8
Codec ID/Info : UTF-8 Plain Text
Duration : 34 min 46 s
Bit rate : 46 b/s
Count of elements : 481
Stream size : 11.8 KiB (0%)
Title : slovenščina
Language : Slovenian
Default : No
Forced : No

Text #31
ID : 34
Format : UTF-8
Codec ID : S_TEXT/UTF8
Codec ID/Info : UTF-8 Plain Text
Duration : 34 min 46 s
Bit rate : 60 b/s
Count of elements : 480
Stream size : 15.3 KiB (0%)
Title : Svenska
Language : Swedish
Default : No
Forced : No

Text #32
ID : 35
Format : UTF-8
Codec ID : S_TEXT/UTF8
Codec ID/Info : UTF-8 Plain Text
Duration : 34 min 46 s
Bit rate : 170 b/s
Count of elements : 481
Stream size : 43.4 KiB (0%)
Title : தமிழ்
Language : Tamil
Default : No
Forced : No

Text #33
ID : 36
Format : UTF-8
Codec ID : S_TEXT/UTF8
Codec ID/Info : UTF-8 Plain Text
Duration : 34 min 46 s
Bit rate : 161 b/s
Count of elements : 480
Stream size : 41.1 KiB (0%)
Title : తెలుగు
Language : Telugu
Default : No
Forced : No

Text #34
ID : 37
Format : UTF-8
Codec ID : S_TEXT/UTF8
Codec ID/Info : UTF-8 Plain Text
Duration : 34 min 46 s
Bit rate : 144 b/s
Count of elements : 481
Stream size : 36.9 KiB (0%)
Title : ไทย
Language : Thai
Default : No
Forced : No

Text #35
ID : 38
Format : UTF-8
Codec ID : S_TEXT/UTF8
Codec ID/Info : UTF-8 Plain Text
Duration : 34 min 46 s
Bit rate : 88 b/s
Count of elements : 481
Stream size : 22.5 KiB (0%)
Title : українська
Language : Ukrainian
Default : No
Forced : No

Text #36
ID : 39
Format : UTF-8
Codec ID : S_TEXT/UTF8
Codec ID/Info : UTF-8 Plain Text
Duration : 34 min 46 s
Bit rate : 72 b/s
Count of elements : 480
Stream size : 18.5 KiB (0%)
Title : Tiếng Việt
Language : Vietnamese
Default : No
Forced : No





Dickinson S01E01


Dickinson S01E01


Dickinson S01E01


Dickinson S01E01


Dickinson S01E01

All episodes