Index
# A B C D E F G H I J K L M N O P Q R S T U V W Y Z
Tags
Language
Tags

Featured TV Shows


Dirty Money S02E01

Posted By: Tavaz
1080p (FullHD) / WEBRip IMDb
Dirty Money S02E01

Dirty Money S02E01
WEBRip | MOV | 1920x1080 | H265 @ 2655 kbps | AAC @ 128 kbps | 52 min 19 s | 1.02 GiB
Genre: Crime, Documentary


From crippling payday loans to cars that cheat emissions tests, this investigative series exposes brazen acts of corporate greed and corruption.

0866954388f28082479624abb83c4461.mp4 (1.0 GB)



General
Complete name : ./0866954388f28082479624abb83c4461.mp4
Format : MPEG-4
Format profile : Base Media
Codec ID : isom (isom/iso2/mp41)
File size : 1.02 GiB
Duration : 52 min 19 s
Overall bit rate mode : Variable
Overall bit rate : 2 787 kb/s
Movie name : Dirty Money - The Wagon Wheel
Performer : Dirty Money
Tagged date : UTC 2020-03-12 19:25:13
Writing application : Lavf58.20.100
Cover : Yes

Video
ID : 1
Format : HEVC
Format/Info : High Efficiency Video Coding
Format profile : Main@L4@Main
Codec ID : hev1
Codec ID/Info : High Efficiency Video Coding
Duration : 52 min 19 s
Bit rate : 2 656 kb/s
Width : 1 920 pixels
Height : 1 080 pixels
Display aspect ratio : 16:9
Frame rate mode : Constant
Frame rate : 23.976 (23976/1000) FPS
Color space : YUV
Chroma subsampling : 4:2:0
Bit depth : 8 bits
Scan type : Progressive
Bits/(Pixel*Frame) : 0.053
Stream size : 994 MiB (95%)

Audio
ID : 2
Format : AAC
Format/Info : Advanced Audio Codec
Format profile : LC
Codec ID : mp4a-40-2
Duration : 52 min 19 s
Duration_LastFrame : -16 ms
Bit rate mode : Variable
Bit rate : 128 kb/s
Maximum bit rate : 141 kb/s
Channel(s) : 2 channels
Channel positions : Front: L R
Sampling rate : 48.0 kHz
Frame rate : 46.875 FPS (1024 SPF)
Compression mode : Lossy
Stream size : 47.9 MiB (5%)
Default : Yes
Alternate group : 1





Dirty Money S02E01


Dirty Money S02E01


Dirty Money S02E01


Dirty Money S02E01


Dirty Money S02E01

All episodes