Featured TV Shows


Disenchantment S01E06

Posted By: Tavaz
720p (HD) / WEBRip IMDb
Disenchantment S01E06

Disenchantment S01E06
WEBRip | MKV | 1920x1080 | English / Spanish / Spanish / French / German / Italian / Portuguese / Polish / Turkish / Russian / Japanese / English | H264 @ 1137 kbps | E-AC-3 @ 128 kbps | 28 min 12 s | 541 MiB
Subtitles: Swedish, Turkish, Romanian, Dutch, Korean, Danish, Indonesian, Vietnamese, French, Norwegian, Russian, Thai, Finnish, Spanish, Greek, English, Italian, Portuguese, Chinese, German, Japanese, Hebrew, Polish, Arabic
Genre: Animation, Comedy


Set in a ruined medieval city called Dreamland, Disenchantment follows the grubby adventures of a hard-drinking princess, her feisty elf companion and her personal demon.

1dcbda6768944316ab66c13633181ba7.mkv (541.1 MB)



General
Unique ID : 326865530094993706786979476457402725613 (0xF5E802DF4CEEFF228127B22B1CA0F4ED)
Complete name : ./1dcbda6768944316ab66c13633181ba7.mkv
Format : Matroska
Format version : Version 4 / Version 2
File size : 541 MiB
Duration : 28 min 12 s
Overall bit rate mode : Variable
Overall bit rate : 2 682 kb/s
Encoded date : UTC 2019-10-07 11:56:49
Writing application : mkvmerge v25.0.0 ('Prog Noir') 32-bit
Writing library : libebml v1.3.6 + libmatroska v1.4.9

Video
ID : 1
Format : AVC
Format/Info : Advanced Video Codec
Format profile : High@L4
Format settings : CABAC / 4 Ref Frames
Format settings, CABAC : Yes
Format settings, RefFrames : 4 frames
Codec ID : V_MPEG4/ISO/AVC
Duration : 28 min 12 s
Bit rate mode : Variable
Bit rate : 1 137 kb/s
Maximum bit rate : 20.0 Mb/s
Width : 1 920 pixels
Height : 1 080 pixels
Display aspect ratio : 16:9
Frame rate mode : Constant
Frame rate : 23.976 (24000/1001) FPS
Color space : YUV
Chroma subsampling : 4:2:0
Bit depth : 8 bits
Scan type : Progressive
Bits/(Pixel*Frame) : 0.023
Stream size : 229 MiB (42%)
Writing library : x264 core 148 r2715 7e75228
Encoding settings : cabac=1 / ref=4 / deblock=1:0:0 / analyse=0x3:0x111 / me=umh / subme=10 / psy=1 / psy_rd=1.00:0.00 / mixed_ref=1 / me_range=120 / chroma_me=1 / trellis=2 / 8x8dct=1 / cqm=0 / deadzone=21,11 / fast_pskip=1 / chroma_qp_offset=-2 / threads=8 / lookahead_threads=2 / sliced_threads=0 / nr=0 / decimate=1 / interlaced=0 / bluray_compat=0 / stitchable=1 / constrained_intra=0 / bframes=16 / b_pyramid=2 / b_adapt=2 / b_bias=0 / direct=3 / weightb=1 / open_gop=0 / weightp=2 / keyint=240 / keyint_min=121 / scenecut=0 / intra_refresh=0 / rc_lookahead=240 / rc=crf / mbtree=1 / crf=24.0 / qcomp=0.50 / qpmin=6 / qpmax=51 / qpstep=4 / vbv_maxrate=20000 / vbv_bufsize=25000 / crf_max=0.0 / nal_hrd=vbr / filler=0 / ip_ratio=1.40 / aq=1:0.80
Default : Yes
Forced : No

Audio #1
ID : 2
Format : E-AC-3
Format/Info : Enhanced Audio Coding 3
Format settings, Endianness : Big
Codec ID : A_EAC3
Duration : 28 min 12 s
Bit rate mode : Constant
Bit rate : 128 kb/s
Channel(s) : 2 channels
Channel positions : Front: L R
Sampling rate : 48.0 kHz
Frame rate : 187.500 FPS (256 SPF)
Compression mode : Lossy
Stream size : 25.8 MiB (5%)
Title : English
Language : English
Service kind : Complete Main
Default : Yes
Forced : No

Audio #2
ID : 3
Format : E-AC-3
Format/Info : Enhanced Audio Coding 3
Format settings, Endianness : Big
Codec ID : A_EAC3
Duration : 28 min 12 s
Bit rate mode : Constant
Bit rate : 128 kb/s
Channel(s) : 2 channels
Channel positions : Front: L R
Sampling rate : 48.0 kHz
Frame rate : 187.500 FPS (256 SPF)
Compression mode : Lossy
Stream size : 25.8 MiB (5%)
Title : Castilian
Language : Spanish
Service kind : Complete Main
Default : No
Forced : No

Audio #3
ID : 4
Format : E-AC-3
Format/Info : Enhanced Audio Coding 3
Format settings, Endianness : Big
Codec ID : A_EAC3
Duration : 28 min 12 s
Bit rate mode : Constant
Bit rate : 128 kb/s
Channel(s) : 2 channels
Channel positions : Front: L R
Sampling rate : 48.0 kHz
Frame rate : 187.500 FPS (256 SPF)
Compression mode : Lossy
Stream size : 25.8 MiB (5%)
Title : Spanish
Language : Spanish
Service kind : Complete Main
Default : No
Forced : No

Audio #4
ID : 5
Format : E-AC-3
Format/Info : Enhanced Audio Coding 3
Format settings, Endianness : Big
Codec ID : A_EAC3
Duration : 28 min 12 s
Bit rate mode : Constant
Bit rate : 128 kb/s
Channel(s) : 2 channels
Channel positions : Front: L R
Sampling rate : 48.0 kHz
Frame rate : 187.500 FPS (256 SPF)
Compression mode : Lossy
Stream size : 25.8 MiB (5%)
Title : French
Language : French
Service kind : Complete Main
Default : No
Forced : No

Audio #5
ID : 6
Format : E-AC-3
Format/Info : Enhanced Audio Coding 3
Format settings, Endianness : Big
Codec ID : A_EAC3
Duration : 28 min 12 s
Bit rate mode : Constant
Bit rate : 128 kb/s
Channel(s) : 2 channels
Channel positions : Front: L R
Sampling rate : 48.0 kHz
Frame rate : 187.500 FPS (256 SPF)
Compression mode : Lossy
Stream size : 25.8 MiB (5%)
Title : German
Language : German
Service kind : Complete Main
Default : No
Forced : No

Audio #6
ID : 7
Format : E-AC-3
Format/Info : Enhanced Audio Coding 3
Format settings, Endianness : Big
Codec ID : A_EAC3
Duration : 28 min 12 s
Bit rate mode : Constant
Bit rate : 128 kb/s
Channel(s) : 2 channels
Channel positions : Front: L R
Sampling rate : 48.0 kHz
Frame rate : 187.500 FPS (256 SPF)
Compression mode : Lossy
Stream size : 25.8 MiB (5%)
Title : Italian
Language : Italian
Service kind : Complete Main
Default : No
Forced : No

Audio #7
ID : 8
Format : E-AC-3
Format/Info : Enhanced Audio Coding 3
Format settings, Endianness : Big
Codec ID : A_EAC3
Duration : 28 min 12 s
Bit rate mode : Constant
Bit rate : 128 kb/s
Channel(s) : 2 channels
Channel positions : Front: L R
Sampling rate : 48.0 kHz
Frame rate : 187.500 FPS (256 SPF)
Compression mode : Lossy
Stream size : 25.8 MiB (5%)
Title : Brazilian Portuguese
Language : Portuguese
Service kind : Complete Main
Default : No
Forced : No

Audio #8
ID : 9
Format : E-AC-3
Format/Info : Enhanced Audio Coding 3
Format settings, Endianness : Big
Codec ID : A_EAC3
Duration : 28 min 12 s
Bit rate mode : Constant
Bit rate : 128 kb/s
Channel(s) : 2 channels
Channel positions : Front: L R
Sampling rate : 48.0 kHz
Frame rate : 187.500 FPS (256 SPF)
Compression mode : Lossy
Stream size : 25.8 MiB (5%)
Title : Polish
Language : Polish
Service kind : Complete Main
Default : No
Forced : No

Audio #9
ID : 10
Format : E-AC-3
Format/Info : Enhanced Audio Coding 3
Format settings, Endianness : Big
Codec ID : A_EAC3
Duration : 28 min 12 s
Bit rate mode : Constant
Bit rate : 128 kb/s
Channel(s) : 2 channels
Channel positions : Front: L R
Sampling rate : 48.0 kHz
Frame rate : 187.500 FPS (256 SPF)
Compression mode : Lossy
Stream size : 25.8 MiB (5%)
Title : Turkish
Language : Turkish
Service kind : Complete Main
Default : No
Forced : No

Audio #10
ID : 11
Format : E-AC-3
Format/Info : Enhanced Audio Coding 3
Format settings, Endianness : Big
Codec ID : A_EAC3
Duration : 28 min 12 s
Bit rate mode : Constant
Bit rate : 128 kb/s
Channel(s) : 2 channels
Channel positions : Front: L R
Sampling rate : 48.0 kHz
Frame rate : 187.500 FPS (256 SPF)
Compression mode : Lossy
Stream size : 25.8 MiB (5%)
Title : Russian
Language : Russian
Service kind : Complete Main
Default : No
Forced : No

Audio #11
ID : 12
Format : E-AC-3
Format/Info : Enhanced Audio Coding 3
Format settings, Endianness : Big
Codec ID : A_EAC3
Duration : 28 min 12 s
Bit rate mode : Constant
Bit rate : 128 kb/s
Channel(s) : 2 channels
Channel positions : Front: L R
Sampling rate : 48.0 kHz
Frame rate : 187.500 FPS (256 SPF)
Compression mode : Lossy
Stream size : 25.8 MiB (5%)
Title : Japanese
Language : Japanese
Service kind : Complete Main
Default : No
Forced : No

Audio #12
ID : 13
Format : E-AC-3
Format/Info : Enhanced Audio Coding 3
Format settings, Endianness : Big
Codec ID : A_EAC3
Duration : 28 min 12 s
Bit rate mode : Constant
Bit rate : 128 kb/s
Channel(s) : 2 channels
Channel positions : Front: L R
Sampling rate : 48.0 kHz
Frame rate : 187.500 FPS (256 SPF)
Compression mode : Lossy
Stream size : 25.8 MiB (5%)
Title : English (Audio Description)
Language : English
Service kind : Complete Main
Default : No
Forced : No

Text #1
ID : 14
Format : UTF-8
Codec ID : S_TEXT/UTF8
Codec ID/Info : UTF-8 Plain Text
Duration : 25 min 59 s
Bit rate : 89 b/s
Count of elements : 452
Stream size : 17.1 KiB (0%)
Title : English [SDH]
Language : English
Default : No
Forced : No

Text #2
ID : 15
Format : UTF-8
Codec ID : S_TEXT/UTF8
Codec ID/Info : UTF-8 Plain Text
Duration : 26 min 57 s
Bit rate : 1 b/s
Count of elements : 15
Stream size : 361 Bytes (0%)
Title : Castilian [Forced]
Language : Spanish
Default : No
Forced : Yes

Text #3
ID : 16
Format : UTF-8
Codec ID : S_TEXT/UTF8
Codec ID/Info : UTF-8 Plain Text
Duration : 26 min 57 s
Bit rate : 73 b/s
Count of elements : 373
Stream size : 14.6 KiB (0%)
Title : Castilian [Full]
Language : Spanish
Default : No
Forced : No

Text #4
ID : 17
Format : UTF-8
Codec ID : S_TEXT/UTF8
Codec ID/Info : UTF-8 Plain Text
Duration : 26 min 57 s
Bit rate : 1 b/s
Count of elements : 8
Stream size : 242 Bytes (0%)
Title : Spanish [Forced]
Language : Spanish
Default : No
Forced : Yes

Text #5
ID : 18
Format : UTF-8
Codec ID : S_TEXT/UTF8
Codec ID/Info : UTF-8 Plain Text
Duration : 26 min 57 s
Bit rate : 74 b/s
Count of elements : 376
Stream size : 14.7 KiB (0%)
Title : Spanish [Full]
Language : Spanish
Default : No
Forced : No

Text #6
ID : 19
Format : UTF-8
Codec ID : S_TEXT/UTF8
Codec ID/Info : UTF-8 Plain Text
Duration : 26 min 57 s
Bit rate : 1 b/s
Count of elements : 8
Stream size : 250 Bytes (0%)
Title : French [Forced]
Language : French
Default : No
Forced : Yes

Text #7
ID : 20
Format : UTF-8
Codec ID : S_TEXT/UTF8
Codec ID/Info : UTF-8 Plain Text
Duration : 26 min 57 s
Bit rate : 76 b/s
Count of elements : 375
Stream size : 15.1 KiB (0%)
Title : French [Full]
Language : French
Default : No
Forced : No

Text #8
ID : 21
Format : UTF-8
Codec ID : S_TEXT/UTF8
Codec ID/Info : UTF-8 Plain Text
Duration : 26 min 57 s
Bit rate : 1 b/s
Count of elements : 9
Stream size : 234 Bytes (0%)
Title : German [Forced]
Language : German
Default : No
Forced : Yes

Text #9
ID : 22
Format : UTF-8
Codec ID : S_TEXT/UTF8
Codec ID/Info : UTF-8 Plain Text
Duration : 26 min 57 s
Bit rate : 77 b/s
Count of elements : 371
Stream size : 15.3 KiB (0%)
Title : German [Full]
Language : German
Default : No
Forced : No

Text #10
ID : 23
Format : UTF-8
Codec ID : S_TEXT/UTF8
Codec ID/Info : UTF-8 Plain Text
Duration : 26 min 57 s
Bit rate : 0 b/s
Count of elements : 7
Stream size : 202 Bytes (0%)
Title : Italian [Forced]
Language : Italian
Default : No
Forced : Yes

Text #11
ID : 24
Format : UTF-8
Codec ID : S_TEXT/UTF8
Codec ID/Info : UTF-8 Plain Text
Duration : 26 min 57 s
Bit rate : 74 b/s
Count of elements : 369
Stream size : 14.7 KiB (0%)
Title : Italian [Full]
Language : Italian
Default : No
Forced : No

Text #12
ID : 25
Format : UTF-8
Codec ID : S_TEXT/UTF8
Codec ID/Info : UTF-8 Plain Text
Duration : 26 min 57 s
Bit rate : 77 b/s
Count of elements : 371
Stream size : 15.3 KiB (0%)
Title : Portuguese [Full]
Language : Portuguese
Default : No
Forced : No

Text #13
ID : 26
Format : UTF-8
Codec ID : S_TEXT/UTF8
Codec ID/Info : UTF-8 Plain Text
Duration : 26 min 57 s
Bit rate : 1 b/s
Count of elements : 10
Stream size : 281 Bytes (0%)
Title : Brazilian Portuguese [Forced]
Language : Portuguese
Default : No
Forced : Yes

Text #14
ID : 27
Format : UTF-8
Codec ID : S_TEXT/UTF8
Codec ID/Info : UTF-8 Plain Text
Duration : 26 min 57 s
Bit rate : 71 b/s
Count of elements : 378
Stream size : 14.2 KiB (0%)
Title : Brazilian Portuguese [Full]
Language : Portuguese
Default : No
Forced : No

Text #15
ID : 28
Format : UTF-8
Codec ID : S_TEXT/UTF8
Codec ID/Info : UTF-8 Plain Text
Duration : 26 min 57 s
Bit rate : 1 b/s
Count of elements : 8
Stream size : 232 Bytes (0%)
Title : Polish [Forced]
Language : Polish
Default : No
Forced : Yes

Text #16
ID : 29
Format : UTF-8
Codec ID : S_TEXT/UTF8
Codec ID/Info : UTF-8 Plain Text
Duration : 26 min 57 s
Bit rate : 70 b/s
Count of elements : 374
Stream size : 14.0 KiB (0%)
Title : Polish [Full]
Language : Polish
Default : No
Forced : No

Text #17
ID : 30
Format : UTF-8
Codec ID : S_TEXT/UTF8
Codec ID/Info : UTF-8 Plain Text
Duration : 26 min 57 s
Bit rate : 1 b/s
Count of elements : 9
Stream size : 248 Bytes (0%)
Title : Turkish [Forced]
Language : Turkish
Default : No
Forced : Yes

Text #18
ID : 31
Format : UTF-8
Codec ID : S_TEXT/UTF8
Codec ID/Info : UTF-8 Plain Text
Duration : 26 min 57 s
Bit rate : 76 b/s
Count of elements : 378
Stream size : 15.1 KiB (0%)
Title : Turkish [Full]
Language : Turkish
Default : No
Forced : No

Text #19
ID : 32
Format : UTF-8
Codec ID : S_TEXT/UTF8
Codec ID/Info : UTF-8 Plain Text
Duration : 26 min 57 s
Bit rate : 74 b/s
Count of elements : 374
Stream size : 14.7 KiB (0%)
Title : Swedish [Full]
Language : Swedish
Default : No
Forced : No

Text #20
ID : 33
Format : UTF-8
Codec ID : S_TEXT/UTF8
Codec ID/Info : UTF-8 Plain Text
Duration : 26 min 57 s
Bit rate : 72 b/s
Count of elements : 375
Stream size : 14.2 KiB (0%)
Title : Danish [Full]
Language : Danish
Default : No
Forced : No

Text #21
ID : 34
Format : UTF-8
Codec ID : S_TEXT/UTF8
Codec ID/Info : UTF-8 Plain Text
Duration : 26 min 57 s
Bit rate : 73 b/s
Count of elements : 351
Stream size : 14.5 KiB (0%)
Title : Finnish [Full]
Language : Finnish
Default : No
Forced : No

Text #22
ID : 35
Format : UTF-8
Codec ID : S_TEXT/UTF8
Codec ID/Info : UTF-8 Plain Text
Duration : 26 min 57 s
Bit rate : 70 b/s
Count of elements : 364
Stream size : 13.9 KiB (0%)
Title : Dutch [Full]
Language : Dutch
Default : No
Forced : No

Text #23
ID : 36
Format : UTF-8
Codec ID : S_TEXT/UTF8
Codec ID/Info : UTF-8 Plain Text
Duration : 25 min 59 s
Bit rate : 74 b/s
Count of elements : 364
Stream size : 14.1 KiB (0%)
Title : Norwegian [Full]
Language : Norwegian
Default : No
Forced : No

Text #24
ID : 37
Format : UTF-8
Codec ID : S_TEXT/UTF8
Codec ID/Info : UTF-8 Plain Text
Duration : 26 min 57 s
Bit rate : 2 b/s
Count of elements : 10
Stream size : 475 Bytes (0%)
Title : Russian [Forced]
Language : Russian
Default : No
Forced : Yes

Text #25
ID : 38
Format : UTF-8
Codec ID : S_TEXT/UTF8
Codec ID/Info : UTF-8 Plain Text
Duration : 26 min 57 s
Bit rate : 116 b/s
Count of elements : 378
Stream size : 23.1 KiB (0%)
Title : Russian [Full]
Language : Russian
Default : No
Forced : No

Text #26
ID : 39
Format : UTF-8
Codec ID : S_TEXT/UTF8
Codec ID/Info : UTF-8 Plain Text
Duration : 26 min 57 s
Bit rate : 131 b/s
Count of elements : 377
Stream size : 26.0 KiB (0%)
Title : Greek [Full]
Language : Greek
Default : No
Forced : No

Text #27
ID : 40
Format : UTF-8
Codec ID : S_TEXT/UTF8
Codec ID/Info : UTF-8 Plain Text
Duration : 26 min 57 s
Bit rate : 115 b/s
Count of elements : 381
Stream size : 22.8 KiB (0%)
Title : Hebrew [Full]
Language : Hebrew
Default : No
Forced : No

Text #28
ID : 41
Format : UTF-8
Codec ID : S_TEXT/UTF8
Codec ID/Info : UTF-8 Plain Text
Duration : 26 min 57 s
Bit rate : 126 b/s
Count of elements : 378
Stream size : 25.0 KiB (0%)
Title : Arabic [Full]
Language : Arabic
Default : No
Forced : No

Text #29
ID : 42
Format : UTF-8
Codec ID : S_TEXT/UTF8
Codec ID/Info : UTF-8 Plain Text
Duration : 26 min 57 s
Bit rate : 92 b/s
Count of elements : 376
Stream size : 18.2 KiB (0%)
Title : Romanian [Full]
Language : Romanian
Default : No
Forced : No

Text #30
ID : 43
Format : UTF-8
Codec ID : S_TEXT/UTF8
Codec ID/Info : UTF-8 Plain Text
Duration : 26 min 57 s
Bit rate : 72 b/s
Count of elements : 378
Stream size : 14.3 KiB (0%)
Title : Indonesian [Full]
Language : Indonesian
Default : No
Forced : No

Text #31
ID : 44
Format : UTF-8
Codec ID : S_TEXT/UTF8
Codec ID/Info : UTF-8 Plain Text
Duration : 26 min 57 s
Bit rate : 108 b/s
Count of elements : 379
Stream size : 21.3 KiB (0%)
Title : Vietnamese [Full]
Language : Vietnamese
Default : No
Forced : No

Text #32
ID : 45
Format : UTF-8
Codec ID : S_TEXT/UTF8
Codec ID/Info : UTF-8 Plain Text
Duration : 26 min 57 s
Bit rate : 210 b/s
Count of elements : 379
Stream size : 41.6 KiB (0%)
Title : Thai [Full]
Language : Thai
Default : No
Forced : No

Text #33
ID : 46
Format : UTF-8
Codec ID : S_TEXT/UTF8
Codec ID/Info : UTF-8 Plain Text
Duration : 26 min 57 s
Bit rate : 91 b/s
Count of elements : 381
Stream size : 18.1 KiB (0%)
Title : Korean [Full]
Language : Korean
Default : No
Forced : No

Text #34
ID : 47
Format : UTF-8
Codec ID : S_TEXT/UTF8
Codec ID/Info : UTF-8 Plain Text
Duration : 26 min 57 s
Bit rate : 90 b/s
Count of elements : 377
Stream size : 17.9 KiB (0%)
Title : Chinese (Simplified) [Full]
Language : Chinese
Default : No
Forced : No

Text #35
ID : 48
Format : UTF-8
Codec ID : S_TEXT/UTF8
Codec ID/Info : UTF-8 Plain Text
Duration : 26 min 57 s
Bit rate : 82 b/s
Count of elements : 379
Stream size : 16.3 KiB (0%)
Title : Chinese (Traditional) [Full]
Language : Chinese
Default : No
Forced : No

Text #36
ID : 49
Format : UTF-8
Codec ID : S_TEXT/UTF8
Codec ID/Info : UTF-8 Plain Text
Duration : 26 min 57 s
Bit rate : 1 b/s
Count of elements : 7
Stream size : 239 Bytes (0%)
Title : Japanese [Forced]
Language : Japanese
Default : No
Forced : Yes

Text #37
ID : 50
Format : UTF-8
Codec ID : S_TEXT/UTF8
Codec ID/Info : UTF-8 Plain Text
Duration : 26 min 57 s
Bit rate : 80 b/s
Count of elements : 365
Stream size : 15.9 KiB (0%)
Title : Japanese [Full]
Language : Japanese
Default : No
Forced : No





Disenchantment S01E06


Disenchantment S01E06


Disenchantment S01E06


Disenchantment S01E06


Disenchantment S01E06

All episodes