Featured TV Shows


Disjointed S01E06

Posted By: Tavaz
SD / WEBRip IMDb
Disjointed S01E06

Disjointed S01E06
WEBRip | AVI | 640x360 | MP4V-ES @ 1895 kbps | MPEG Audio @ 128 kbps | 24 min 21 s | 354 MiB
Genre: Comedy

Pot activist Ruth Whitefeather Feldman runs a medical marijuana dispensary while encouraging her loyal patients to chill out and enjoy the high life.

1f90a888ec0b4fa18e0e74af6c78d7f6.avi (354.3 MB)



General
Complete name : ./1f90a888ec0b4fa18e0e74af6c78d7f6.avi
Format : AVI
Format/Info : Audio Video Interleave
File size : 354 MiB
Duration : 24 min 21 s
Overall bit rate : 2 033 kb/s
Writing application : VirtualDubMod 1.5.10.2 (build 2542/release)
Writing library : VirtualDubMod build 2542/release

Video
ID : 0
Format : MPEG-4 Visual
Format profile : Simple@L3
Format settings, BVOP : No
Format settings, QPel : No
Format settings, GMC : No warppoints
Format settings, Matrix : Default (H.263)
Codec ID : XVID
Codec ID/Hint : XviD
Duration : 24 min 21 s
Bit rate : 1 896 kb/s
Width : 640 pixels
Height : 360 pixels
Display aspect ratio : 16:9
Frame rate : 23.976 (24000/1001) FPS
Color space : YUV
Chroma subsampling : 4:2:0
Bit depth : 8 bits
Scan type : Progressive
Compression mode : Lossy
Bits/(Pixel*Frame) : 0.343
Stream size : 330 MiB (93%)
Writing library : XviD 64

Audio
ID : 1
Format : MPEG Audio
Format version : Version 1
Format profile : Layer 3
Format settings : Joint stereo / MS Stereo
Mode : Joint stereo
Mode extension : MS Stereo
Codec ID : 55
Codec ID/Hint : MP3
Duration : 24 min 21 s
Bit rate mode : Constant
Bit rate : 128 kb/s
Channel(s) : 2 channels
Sampling rate : 48.0 kHz
Compression mode : Lossy
Stream size : 22.3 MiB (6%)
Alignment : Aligned on interleaves
Interleave, duration : 42 ms (1.00 video frame)
Interleave, preload duration : 504 ms





Disjointed S01E06


Disjointed S01E06


Disjointed S01E06


Disjointed S01E06


Disjointed S01E06

All episodes