Featured TV Shows


Disjointed S01E07

Posted By: Tavaz
SD / WEBRip IMDb
Disjointed S01E07

Disjointed S01E07
WEBRip | AVI | 640x360 | MP4V-ES @ 1986 kbps | MPEG Audio @ 128 kbps | 27 min 52 s | 423 MiB
Genre: Comedy

Pot activist Ruth Whitefeather Feldman runs a medical marijuana dispensary while encouraging her loyal patients to chill out and enjoy the high life.

a983ad57a90841cda2f520a39b4694c4.avi (423.3 MB)



General
Complete name : ./a983ad57a90841cda2f520a39b4694c4.avi
Format : AVI
Format/Info : Audio Video Interleave
File size : 423 MiB
Duration : 27 min 52 s
Overall bit rate : 2 123 kb/s
Writing application : VirtualDubMod 1.5.10.2 (build 2542/release)
Writing library : VirtualDubMod build 2542/release

Video
ID : 0
Format : MPEG-4 Visual
Format profile : Simple@L3
Format settings, BVOP : No
Format settings, QPel : No
Format settings, GMC : No warppoints
Format settings, Matrix : Default (H.263)
Codec ID : XVID
Codec ID/Hint : XviD
Duration : 27 min 52 s
Bit rate : 1 986 kb/s
Width : 640 pixels
Height : 360 pixels
Display aspect ratio : 16:9
Frame rate : 23.976 (24000/1001) FPS
Color space : YUV
Chroma subsampling : 4:2:0
Bit depth : 8 bits
Scan type : Progressive
Compression mode : Lossy
Bits/(Pixel*Frame) : 0.360
Stream size : 396 MiB (94%)
Writing library : XviD 64

Audio
ID : 1
Format : MPEG Audio
Format version : Version 1
Format profile : Layer 3
Format settings : Joint stereo / MS Stereo
Mode : Joint stereo
Mode extension : MS Stereo
Codec ID : 55
Codec ID/Hint : MP3
Duration : 27 min 52 s
Bit rate mode : Constant
Bit rate : 128 kb/s
Channel(s) : 2 channels
Sampling rate : 48.0 kHz
Compression mode : Lossy
Stream size : 25.5 MiB (6%)
Alignment : Aligned on interleaves
Interleave, duration : 42 ms (1.00 video frame)
Interleave, preload duration : 504 ms





Disjointed S01E07


Disjointed S01E07


Disjointed S01E07


Disjointed S01E07


Disjointed S01E07

All episodes