Featured TV Shows


Disjointed S01E12

Posted By: Tavaz
1080p (FullHD) / WEBRip IMDb
Disjointed S01E12

Disjointed S01E12
WEBRip | MKV | 1920x1080 | English | H264 @ 5360 kbps | AC-3 @ 384 kbps | 26 min 32 s | 1.05 GiB
Subtitles: Portuguese, German, Spanish, French, English, Polish, Italian
Genre: Comedy

Pot activist Ruth Whitefeather Feldman runs a medical marijuana dispensary while encouraging her loyal patients to chill out and enjoy the high life.

f36fe2bf33f34c73af76808c0e122719.mkv (1.1 GB)



General
Unique ID : 207099275664428388656345761366293785543 (0x9BCDDEA123DE3648B95E91177DBEABC7)
Complete name : ./f36fe2bf33f34c73af76808c0e122719.mkv
Format : Matroska
Format version : Version 4 / Version 2
File size : 1.05 GiB
Duration : 26 min 32 s
Overall bit rate mode : Variable
Overall bit rate : 5 681 kb/s
Encoded date : UTC 2018-01-12 08:53:37
Writing application : mkvmerge v16.0.0 ('Protest') 32-bit
Writing library : libebml v1.3.5 + libmatroska v1.4.8

Video
ID : 1
Format : AVC
Format/Info : Advanced Video Codec
Format profile : Main@L4
Format settings : CABAC / 3 Ref Frames
Format settings, CABAC : Yes
Format settings, RefFrames : 3 frames
Codec ID : V_MPEG4/ISO/AVC
Duration : 26 min 31 s
Bit rate mode : Variable
Bit rate : 5 360 kb/s
Maximum bit rate : 8 040 kb/s
Width : 1 920 pixels
Height : 1 080 pixels
Display aspect ratio : 16:9
Frame rate mode : Constant
Frame rate : 23.976 (24000/1001) FPS
Color space : YUV
Chroma subsampling : 4:2:0
Bit depth : 8 bits
Scan type : Progressive
Bits/(Pixel*Frame) : 0.108
Stream size : 1 005 MiB (93%)
Writing library : x264 core 148
Encoding settings : cabac=1 / ref=3 / deblock=1:0:0 / analyse=0x1:0x111 / me=umh / subme=10 / psy=1 / psy_rd=1.00:0.00 / mixed_ref=1 / me_range=24 / chroma_me=1 / trellis=2 / 8x8dct=0 / cqm=0 / deadzone=21,11 / fast_pskip=1 / chroma_qp_offset=-2 / threads=6 / lookahead_threads=1 / sliced_threads=0 / nr=0 / decimate=1 / interlaced=0 / bluray_compat=0 / stitchable=1 / constrained_intra=0 / bframes=2 / b_pyramid=0 / b_adapt=2 / b_bias=0 / direct=3 / weightb=1 / open_gop=0 / weightp=2 / keyint=48 / keyint_min=25 / scenecut=0 / intra_refresh=0 / rc_lookahead=48 / rc=2pass / mbtree=1 / bitrate=5360 / ratetol=1.0 / qcomp=0.50 / qpmin=6 / qpmax=51 / qpstep=4 / cplxblur=20.0 / qblur=0.5 / vbv_maxrate=8040 / vbv_bufsize=10720 / nal_hrd=vbr / filler=0 / ip_ratio=1.40 / aq=1:1.00
Default : Yes
Forced : No

Audio
ID : 2
Format : AC-3
Format/Info : Audio Coding 3
Format settings, Endianness : Big
Codec ID : A_AC3
Duration : 26 min 32 s
Bit rate mode : Constant
Bit rate : 384 kb/s
Channel(s) : 6 channels
Channel positions : Front: L C R, Side: L R, LFE
Sampling rate : 48.0 kHz
Frame rate : 31.250 FPS (1536 SPF)
Bit depth : 16 bits
Compression mode : Lossy
Stream size : 72.9 MiB (7%)
Title : English
Language : English
Service kind : Complete Main
Default : No
Forced : No

Text #1
ID : 3
Format : UTF-8
Codec ID : S_TEXT/UTF8
Codec ID/Info : UTF-8 Plain Text
Duration : 26 min 4 s
Bit rate : 74 b/s
Count of elements : 388
Stream size : 14.2 KiB (0%)
Title : Castilian [Full]
Language : Spanish
Default : No
Forced : No

Text #2
ID : 4
Format : UTF-8
Codec ID : S_TEXT/UTF8
Codec ID/Info : UTF-8 Plain Text
Duration : 48 s 548 ms
Bit rate : 82 b/s
Count of elements : 18
Stream size : 502 Bytes (0%)
Title : English [Forced]
Language : English
Default : No
Forced : Yes

Text #3
ID : 5
Format : UTF-8
Codec ID : S_TEXT/UTF8
Codec ID/Info : UTF-8 Plain Text
Duration : 25 min 49 s
Bit rate : 83 b/s
Count of elements : 427
Stream size : 15.8 KiB (0%)
Title : English [SDH]
Language : English
Default : No
Forced : No

Text #4
ID : 6
Format : UTF-8
Codec ID : S_TEXT/UTF8
Codec ID/Info : UTF-8 Plain Text
Duration : 26 min 4 s
Bit rate : 69 b/s
Count of elements : 379
Stream size : 13.3 KiB (0%)
Title : French [Full]
Language : French
Default : No
Forced : No

Text #5
ID : 7
Format : UTF-8
Codec ID : S_TEXT/UTF8
Codec ID/Info : UTF-8 Plain Text
Duration : 26 min 4 s
Bit rate : 78 b/s
Count of elements : 380
Stream size : 15.0 KiB (0%)
Title : Deutsch [Full]
Language : German
Default : No
Forced : No

Text #6
ID : 8
Format : UTF-8
Codec ID : S_TEXT/UTF8
Codec ID/Info : UTF-8 Plain Text
Duration : 26 min 4 s
Bit rate : 74 b/s
Count of elements : 388
Stream size : 14.2 KiB (0%)
Title : Italian [Full]
Language : Italian
Default : No
Forced : No

Text #7
ID : 9
Format : UTF-8
Codec ID : S_TEXT/UTF8
Codec ID/Info : UTF-8 Plain Text
Duration : 26 min 4 s
Bit rate : 76 b/s
Count of elements : 388
Stream size : 14.5 KiB (0%)
Title : Portuguese [Full]
Language : Portuguese
Default : No
Forced : No

Text #8
ID : 10
Format : UTF-8
Codec ID : S_TEXT/UTF8
Codec ID/Info : UTF-8 Plain Text
Duration : 26 min 4 s
Bit rate : 75 b/s
Count of elements : 388
Stream size : 14.3 KiB (0%)
Title : Polish [Full]
Language : Polish
Default : No
Forced : No





Disjointed S01E12


Disjointed S01E12


Disjointed S01E12


Disjointed S01E12


Disjointed S01E12

All episodes