Index
# A B C D E F G H I J K L M N O P Q R S T U V W Y Z
Tags
Language
Tags

Featured TV Shows


Doctor Who S05E07

Posted By: Tavaz
720p (HD) / HDTV IMDb
Doctor Who S05E07

Doctor Who S05E07
HDTV | MKV | 1280x720 | English | H264 @ 3158 kbps | AC-3 @ 384 kbps | 44 min 8 s | 1.09 GiB
Genre: Drama


The Doctor is a Time Lord: a 900 year old alien with 2 hearts, part of a gifted civilization who mastered time travel. The Doctor saves planets for a living—more of a hobby actually, and the Doctor's very, very good at it.

f6c23edf41034493e498932cf943c0a8.mkv (1.1 GB)



General
Unique ID : 244802192027984418121279414907927129955 (0xB82B2FECDA400F25ADCB3E73CB75EF63)
Complete name : ./f6c23edf41034493e498932cf943c0a8.mkv
Format : Matroska
Format version : Version 2
File size : 1.09 GiB
Duration : 44 min 8 s
Overall bit rate : 3 543 kb/s
Encoded date : UTC 2010-05-15 18:11:54
Writing application : mkvmerge v2.9.5 ('Tu es le seul') built on Jun 17 2009 16:28:30
Writing library : libebml v0.7.8 + libmatroska v0.8.1

Video
ID : 1
Format : AVC
Format/Info : Advanced Video Codec
Format profile : High@L3.1
Format settings : CABAC / 4 Ref Frames
Format settings, CABAC : Yes
Format settings, RefFrames : 4 frames
Codec ID : V_MPEG4/ISO/AVC
Duration : 44 min 8 s
Bit rate : 3 158 kb/s
Width : 1 280 pixels
Height : 720 pixels
Display aspect ratio : 16:9
Frame rate mode : Constant
Frame rate : 25.000 FPS
Color space : YUV
Chroma subsampling : 4:2:0
Bit depth : 8 bits
Scan type : Progressive
Bits/(Pixel*Frame) : 0.137
Stream size : 975 MiB (87%)
Writing library : x264 core 94 r1583 7608d73
Encoding settings : cabac=1 / ref=3 / deblock=1:0:0 / analyse=0x3:0x113 / me=hex / subme=6 / psy=1 / psy_rd=1.00:0.00 / mixed_ref=0 / me_range=16 / chroma_me=1 / trellis=1 / 8x8dct=1 / cqm=0 / deadzone=21,11 / fast_pskip=0 / chroma_qp_offset=-2 / threads=12 / sliced_threads=0 / nr=0 / decimate=1 / interlaced=0 / constrained_intra=0 / bframes=3 / b_pyramid=2 / b_adapt=1 / b_bias=0 / direct=3 / weightb=1 / weightp=0 / keyint=250 / keyint_min=25 / scenecut=40 / intra_refresh=0 / rc=2pass / mbtree=0 / bitrate=3158 / ratetol=1.0 / qcomp=0.60 / qpmin=10 / qpmax=51 / qpstep=4 / cplxblur=20.0 / qblur=0.5 / ip_ratio=1.40 / pb_ratio=1.30 / aq=1:1.00
Default : Yes
Forced : No

Audio
ID : 2
Format : AC-3
Format/Info : Audio Coding 3
Format settings, Endianness : Big
Codec ID : A_AC3
Duration : 44 min 8 s
Bit rate mode : Constant
Bit rate : 384 kb/s
Channel(s) : 6 channels
Channel positions : Front: L C R, Side: L R, LFE
Sampling rate : 48.0 kHz
Frame rate : 31.250 FPS (1536 SPF)
Bit depth : 16 bits
Compression mode : Lossy
Stream size : 121 MiB (11%)
Language : English
Service kind : Complete Main
Default : Yes
Forced : No





Doctor Who S05E07


Doctor Who S05E07


Doctor Who S05E07


Doctor Who S05E07


Doctor Who S05E07

All episodes