Index
# A B C D E F G H I J K L M N O P Q R S T U V W Y Z
Tags
Language
Tags

Featured TV Shows


Doctor Who S05E08

Posted By: Tavaz
720p (HD) / BDRip IMDb
Doctor Who S05E08

Doctor Who S05E08
BDRip | MKV | 1280x720 | English | H264 @ 6854 kbps | AC-3 @ 448 kbps | 42 min 49 s | 2.19 GiB
Subtitles: English
Genre: Drama

The Doctor is a Time Lord: a 900 year old alien with 2 hearts, part of a gifted civilization who mastered time travel. The Doctor saves planets for a living – more of a hobby actually, and the Doctor's very, very good at it.

0322fe8d731a4b19a0003fb55fe54739.mkv (2.2 GB)



General
Complete name : ./0322fe8d731a4b19a0003fb55fe54739.mkv
Format : Matroska
Format version : Version 1
File size : 2.19 GiB
Duration : 42 min 49 s
Overall bit rate : 7 305 kb/s
Writing application : x264.exe
Writing library : mkv2rls v1.2 (date: 2010 febr 17)

Video
ID : 1
Format : AVC
Format/Info : Advanced Video Codec
Format profile : High@L4.1
Format settings : CABAC / 5 Ref Frames
Format settings, CABAC : Yes
Format settings, RefFrames : 5 frames
Codec ID : V_MPEG4/ISO/AVC
Duration : 42 min 49 s
Bit rate : 6 854 kb/s
Width : 1 280 pixels
Height : 720 pixels
Display aspect ratio : 16:9
Frame rate mode : Constant
Frame rate : 25.000 FPS
Color space : YUV
Chroma subsampling : 4:2:0
Bit depth : 8 bits
Scan type : Progressive
Bits/(Pixel*Frame) : 0.297
Stream size : 2.01 GiB (92%)
Writing library : x264 core 104 r1688 0b36c6d
Encoding settings : cabac=1 / ref=5 / deblock=1:0:0 / analyse=0x3:0x133 / me=umh / subme=7 / psy=1 / psy_rd=1.00:0.00 / mixed_ref=1 / me_range=16 / chroma_me=1 / trellis=1 / 8x8dct=1 / cqm=0 / deadzone=21,11 / fast_pskip=1 / chroma_qp_offset=-2 / threads=12 / sliced_threads=0 / nr=0 / decimate=0 / interlaced=0 / constrained_intra=0 / bframes=3 / b_pyramid=2 / b_adapt=1 / b_bias=0 / direct=3 / weightb=1 / open_gop=0 / weightp=2 / keyint=240 / keyint_min=24 / scenecut=40 / intra_refresh=0 / rc_lookahead=30 / rc=2pass / mbtree=1 / bitrate=6854 / ratetol=1.0 / qcomp=0.60 / qpmin=10 / qpmax=51 / qpstep=4 / cplxblur=20.0 / qblur=0.5 / ip_ratio=1.40 / aq=1:1.00
Language : English
Default : Yes
Forced : No

Audio
ID : 2
Format : AC-3
Format/Info : Audio Coding 3
Format settings, Endianness : Big
Codec ID : A_AC3
Duration : 42 min 49 s
Bit rate mode : Constant
Bit rate : 448 kb/s
Channel(s) : 6 channels
Channel(s)_Original : 2 channels
Channel positions : Front: L R
Sampling rate : 48.0 kHz
Frame rate : 31.250 FPS (1536 SPF)
Bit depth : 16 bits
Compression mode : Lossy
Stream size : 137 MiB (6%)
Title : English AC3 448kbps
Language : English
Service kind : Complete Main
Default : Yes
Forced : No

Text
ID : 3
Format : UTF-8
Codec ID : S_TEXT/UTF8
Codec ID/Info : UTF-8 Plain Text
Title : English
Language : English
Default : No
Forced : No

Menu
00:00:00.000 : en:00:00:00.000
00:04:34.160 : en:00:04:34.160
00:07:11.360 : en:00:07:11.360
00:09:22.440 : en:00:09:22.440
00:13:29.440 : en:00:13:29.440
00:18:05.000 : en:00:18:05.000
00:21:12.800 : en:00:21:12.800
00:24:14.640 : en:00:24:14.640
00:28:51.840 : en:00:28:51.840
00:31:36.920 : en:00:31:36.920
00:37:09.240 : en:00:37:09.240
00:42:18.520 : en:00:42:18.520





Doctor Who S05E08


Doctor Who S05E08


Doctor Who S05E08


Doctor Who S05E08


Doctor Who S05E08

All episodes