Index
# A B C D E F G H I J K L M N O P Q R S T U V W Y Z
Tags
Language
Tags

Featured TV Shows


Doctor Who S06E01

Posted By: Tavaz
720p (HD) / BDRip IMDb
Doctor Who S06E01

Doctor Who S06E01
BDRip | MKV | 1280x720 | English | H264 @ 5658 kbps | DTS @ 1509 kbps | 43 min 35 s | 2.18 GiB
Genre: Drama


The Doctor is a Time Lord: a 900 year old alien with 2 hearts, part of a gifted civilization who mastered time travel. The Doctor saves planets for a living—more of a hobby actually, and the Doctor's very, very good at it.

ffc7458599d25fbf7f8d759e475d2c7e.mkv (2.2 GB)



General
Complete name : ./ffc7458599d25fbf7f8d759e475d2c7e.mkv
Format : Matroska
Format version : Version 2
File size : 2.18 GiB
Duration : 43 min 35 s
Overall bit rate : 7 170 kb/s
Writing application : x264.exe
Writing library : mkv2rls v1.4 (date: 2011 mar 29)

Video
ID : 1
Format : AVC
Format/Info : Advanced Video Codec
Format profile : High@L4.1
Format settings : CABAC / 5 Ref Frames
Format settings, CABAC : Yes
Format settings, RefFrames : 5 frames
Codec ID : V_MPEG4/ISO/AVC
Duration : 43 min 35 s
Bit rate : 5 658 kb/s
Width : 1 280 pixels
Height : 720 pixels
Display aspect ratio : 16:9
Frame rate mode : Constant
Frame rate : 25.000 FPS
Color space : YUV
Chroma subsampling : 4:2:0
Bit depth : 8 bits
Scan type : Progressive
Bits/(Pixel*Frame) : 0.246
Stream size : 1.68 GiB (77%)
Writing library : x264 core 115 r2008 4c552d8
Encoding settings : cabac=1 / ref=5 / deblock=1:0:0 / analyse=0x3:0x113 / me=umh / subme=8 / psy=1 / psy_rd=1.00:0.00 / mixed_ref=1 / me_range=16 / chroma_me=1 / trellis=1 / 8x8dct=1 / cqm=0 / deadzone=21,11 / fast_pskip=1 / chroma_qp_offset=-2 / threads=12 / sliced_threads=0 / nr=0 / decimate=1 / interlaced=0 / bluray_compat=0 / constrained_intra=0 / bframes=3 / b_pyramid=2 / b_adapt=2 / b_bias=0 / direct=3 / weightb=1 / open_gop=0 / weightp=2 / keyint=250 / keyint_min=25 / scenecut=40 / intra_refresh=0 / rc_lookahead=50 / rc=2pass / mbtree=1 / bitrate=5658 / ratetol=1.0 / qcomp=0.60 / qpmin=0 / qpmax=69 / qpstep=4 / cplxblur=20.0 / qblur=0.5 / ip_ratio=1.40 / aq=1:1.00
Language : English
Default : Yes
Forced : No

Audio
ID : 2
Format : DTS
Format/Info : Digital Theater Systems
Mode : 16
Format settings, Endianness : Big
Codec ID : A_DTS
Duration : 43 min 35 s
Bit rate mode : Constant
Bit rate : 1 509 kb/s
Channel(s) : 6 channels
Channel positions : Front: L C R, Side: L R, LFE
Sampling rate : 48.0 kHz
Frame rate : 93.750 FPS (512 SPF)
Bit depth : 24 bits
Compression mode : Lossy
Stream size : 471 MiB (21%)
Language : English
Default : Yes
Forced : No

Menu
00:00:00.000 : en:00:00:00.000
00:04:50.800 : en:00:04:50.800
00:09:50.240 : en:00:09:50.240
00:14:24.600 : en:00:14:24.600
00:20:42.960 : en:00:20:42.960
00:24:54.240 : en:00:24:54.240
00:28:45.400 : en:00:28:45.400
00:31:51.040 : en:00:31:51.040
00:35:37.960 : en:00:35:37.960
00:38:54.320 : en:00:38:54.320
00:40:05.000 : en:00:40:05.000
00:42:26.080 : en:00:42:26.080





Doctor Who S06E01


Doctor Who S06E01


Doctor Who S06E01


Doctor Who S06E01


Doctor Who S06E01

All episodes