Index
# A B C D E F G H I J K L M N O P Q R S T U V W Y Z
Tags
Language
Tags

Featured TV Shows


Doctor Who S06E11

Posted By: Tavaz
720p (HD) / BDRip IMDb
Doctor Who S06E11

Doctor Who S06E11
BDRip | MKV | 1280x720 | English | H264 @ 4996 kbps | DTS @ 1509 kbps | 48 min 1 s | 2.18 GiB
Genre: Drama


The Doctor is a Time Lord: a 900 year old alien with 2 hearts, part of a gifted civilization who mastered time travel. The Doctor saves planets for a living—more of a hobby actually, and the Doctor's very, very good at it.

210d5a91432d1b66226e7ccf182a88be.mkv (2.2 GB)



General
Complete name : ./210d5a91432d1b66226e7ccf182a88be.mkv
Format : Matroska
Format version : Version 2
File size : 2.18 GiB
Duration : 48 min 1 s
Overall bit rate : 6 508 kb/s
Writing application : x264.exe
Writing library : mkv2rls v1.4 (date: 2011 mar 29)

Video
ID : 1
Format : AVC
Format/Info : Advanced Video Codec
Format profile : High@L4.1
Format settings : CABAC / 5 Ref Frames
Format settings, CABAC : Yes
Format settings, RefFrames : 5 frames
Codec ID : V_MPEG4/ISO/AVC
Duration : 48 min 1 s
Bit rate : 4 996 kb/s
Width : 1 280 pixels
Height : 720 pixels
Display aspect ratio : 16:9
Frame rate mode : Constant
Frame rate : 25.000 FPS
Color space : YUV
Chroma subsampling : 4:2:0
Bit depth : 8 bits
Scan type : Progressive
Bits/(Pixel*Frame) : 0.217
Stream size : 1.63 GiB (75%)
Writing library : x264 core 118 r2085 8a62835
Encoding settings : cabac=1 / ref=5 / deblock=1:0:0 / analyse=0x3:0x113 / me=umh / subme=8 / psy=1 / psy_rd=1.00:0.00 / mixed_ref=1 / me_range=16 / chroma_me=1 / trellis=1 / 8x8dct=1 / cqm=0 / deadzone=21,11 / fast_pskip=1 / chroma_qp_offset=-2 / threads=12 / sliced_threads=0 / nr=0 / decimate=1 / interlaced=0 / bluray_compat=0 / constrained_intra=0 / bframes=3 / b_pyramid=2 / b_adapt=2 / b_bias=0 / direct=3 / weightb=1 / open_gop=0 / weightp=2 / keyint=250 / keyint_min=25 / scenecut=40 / intra_refresh=0 / rc_lookahead=50 / rc=2pass / mbtree=1 / bitrate=4996 / ratetol=1.0 / qcomp=0.60 / qpmin=0 / qpmax=69 / qpstep=4 / cplxblur=20.0 / qblur=0.5 / ip_ratio=1.40 / aq=1:1.00
Language : English
Default : Yes
Forced : No

Audio
ID : 2
Format : DTS
Format/Info : Digital Theater Systems
Mode : 16
Format settings, Endianness : Big
Codec ID : A_DTS
Duration : 48 min 1 s
Bit rate mode : Constant
Bit rate : 1 509 kb/s
Channel(s) : 6 channels
Channel positions : Front: L C R, Side: L R, LFE
Sampling rate : 48.0 kHz
Frame rate : 93.750 FPS (512 SPF)
Bit depth : 24 bits
Compression mode : Lossy
Stream size : 518 MiB (23%)
Language : English
Default : Yes
Forced : No

Menu
00:00:00.000 : en:00:00:00.000
00:02:40.000 : en:00:02:40.000
00:06:21.840 : en:00:06:21.840
00:11:15.200 : en:00:11:15.200
00:15:05.200 : en:00:15:05.200
00:22:09.080 : en:00:22:09.080
00:26:36.960 : en:00:26:36.960
00:30:41.240 : en:00:30:41.240
00:34:07.400 : en:00:34:07.400
00:37:05.040 : en:00:37:05.040
00:42:37.320 : en:00:42:37.320
00:47:26.280 : en:00:47:26.280





Doctor Who S06E11


Doctor Who S06E11


Doctor Who S06E11


Doctor Who S06E11


Doctor Who S06E11

All episodes